Revolver Rani (2014) DVDScr x264 kdcz.jpg




كود:
- BollyWooD MoviE -
Revolver Rani

**DVDSCREENER / x264 / 1xCD / SAP**




[ INFO ]

General
Complete name                            : Revolver Rani (2014) DVDScr - x264 - 1xcd - SAP [DDR]
Format                                   : MPEG-4
Format profile                           : Base Media
Codec ID                                 : isom
File size                                : 697 MiB
Duration                                 : 2h 6mn
Overall bit rate                         : 771 Kbps

Video
ID                                       : 1
Format                                   : AVC
Format/Info                              : Advanced Video Codec
Format profile                           : Main@L3.1
Format settings, CABAC                   : Yes
Format settings, ReFrames                : 3 frames
Codec ID                                 : avc1
Codec ID/Info                            : Advanced Video Coding
Duration                                 : 2h 6mn
Bit rate                                 : 691 Kbps
Width                                    : 608 pixels
Height                                   : 256 pixels
Display aspect ratio                     : 2.40:1
Frame rate mode                          : Variable
Frame rate                               : 23.681 fps
Original frame rate                      : 23.976 fps
Minimum frame rate                       : 0.011 fps
Maximum frame rate                       : 23.976 fps
Color space                              : YUV
Chroma subsampling                       : 4:2:0
Bit depth                                : 8 bits
Scan type                                : Progressive
Bits/(Pixel*Frame)                       : 0.187
Stream size                              : 621 MiB (89%)


Audio
ID                                       : 2
Format                                   : MPEG Audio
Format version                           : Version 1
Format profile                           : Layer 3
Mode                                     : Joint stereo
Mode extension                           : MS Stereo
Codec ID                                 : 6B
Duration                                 : 2h 6mn
Bit rate mode                            : Constant
Bit rate                                 : 80.0 Kbps
Channel(s)                               : 2 channels
Sampling rate                            : 32.0 KHz
Compression mode                         : Lossy
Stream size                              : 38.3 MiB (5%)

Revolver Rani (2014) DVDScr x264 q6rf.png

Revolver Rani (2014) DVDScr x264 hhvd.png

Revolver Rani (2014) DVDScr x264 ouvi.png

Revolver Rani (2014) DVDScr x264 1vsw.png

Revolver Rani (2014) DVDScr x264 lex2.png

Revolver Rani (2014) DVDScr x264 8thp.png

Revolver Rani (2014) DVDScr x264 qo15.png

Revolver Rani (2014) DVDScr x264 dmk7.png








SINGLE DIRECT FAST LINKS




كود:
http://rapidgator.net/file/f46ee541e5417ff627141fe2075b4285/Revolver.Rani.2014.DVDScr.x264.1xCD.SAP-DDR.mp4.html
كود:
http://uploaded.net/file/ds2wq107/Revolver.Rani.2014.DVDScr.x264.1xCD.SAP-DDR.mp4
كود:
http://terafile.co/859ca874f790/Revolver.Rani.2014.DVDScr.x264.1xCD.SAP-DDR.mp4

Revolver Rani (2014) - DVDScr x264 1xCD SAP FDDRD 1xcd 2014 ddr dvdscr rani revolver sap