Queen (2014) HQ-DVDRip XviD HEET 0RP2I0p.jpg





كود:
Queen (2014) DVDRip 1.3DVD HQ XviD AC3 HEET - [DUS]
--//// High End Encoding Team ////--
In Association With
Desi Unit Share



Source: - Telly
Complete name                            : Queen (2014) DVDRip 1.3DVD HQ xvid AC3 heet - [DUS]avi
Format                                   : AVI
Format/Info                              : Audio Video Interleave
File size                                : 1.45 GiB
Duration                                 : 2h 25mn
Overall bit rate                         : 1 436 Kbps

Video
ID                                       : 0
Format                                   : MPEG-4 Visual
Format profile                           : Advanced Simple@L5
Format settings, BVOP                    : 2
Format settings, QPel                    : Yes
Format settings, GMC                     : No warppoints
Format settings, Matrix                  : Default (H.263)
Codec ID                                 : XVID
Codec ID/Hint                            : XviD
Duration                                 : 2h 25mn
Bit rate                                 : 979 Kbps
Width                                    : 720 pixels
Height                                   : 304 pixels
Display aspect ratio                     : 2.35:1
Frame rate                               : 29.970 fps
Color space                              : YUV
Chroma subsampling                       : 4:2:0
Bit depth                                : 8 bits
Scan type                                : Progressive
Compression mode                         : Lossy
Bits/(Pixel*Frame)                       : 0.149
Stream size                              : 1 015 MiB (68%)
Writing library                          : XviD 1.2.1 (UTC 2008-12-04)

Audio
ID                                       : 1
Format                                   : AC-3
Format/Info                              : Audio Coding 3
Mode extension                           : CM (complete main)
Format settings, Endianness              : Big
Codec ID                                 : 2000
Duration                                 : 2h 25mn
Bit rate mode                            : Constant
Bit rate                                 : 448 Kbps
Channel count                            : 6 channels
Channel positions                        : Front: L C R, Side: L R, LFE
Sampling rate                            : 48.0 KHz
Bit depth                                : 16 bits
Compression mode                         : Lossy
Stream size                              : 465 MiB (31%)
Alignment                                : Aligned on interleaves
Interleave, duration                     : 64 ms (1.92 video frames)
Interleave, preload duration             : 192 ms
Title                                    : VTS_02_1 T80 3_2ch 448Kbps DELAY 0ms

Queen (2014) HQ-DVDRip XviD HEET x1c2.png
Queen (2014) HQ-DVDRip XviD HEET 9x14.png
Queen (2014) HQ-DVDRip XviD HEET 60gi.png
Queen (2014) HQ-DVDRip XviD HEET h3ti.png
Queen (2014) HQ-DVDRip XviD HEET 92nc.png
Queen (2014) HQ-DVDRip XviD HEET k68r.png
Queen (2014) HQ-DVDRip XviD HEET tfou.png
Queen (2014) HQ-DVDRip XviD HEET zfz9.png
Queen (2014) HQ-DVDRip XviD HEET 5ech.png
Queen (2014) HQ-DVDRip XviD HEET uzow.png



SINGLE DIRECT FAST LINKS

كود:
http://rapidgator.net/file/8f9cf587635a48f820fd08879d2faf82/Queen.2014.DVDRip.1.3DVD.HQ.XviD.AC3.HEET-DUS.avi.html
http://rapidgator.net/file/e097db432bb1a5475a30cca0f2d4f848/Queen.2014.DVDRip.1.3DVD.HQ.XviD.AC3.HEET-DUS.idx.html
http://rapidgator.net/file/0558fd4b45bda9b494de4fd8c983b9e4/Queen.2014.DVDRip.1.3DVD.HQ.XviD.AC3.HEET-DUS.sub.html
كود:
http://terafile.co/92d25dd83266/Queen.2014.DVDRip.1.3DVD.HQ.XviD.AC3.HEET-DUS.avi
http://terafile.co/779d4a697b46/Queen.2014.DVDRip.1.3DVD.HQ.XviD.AC3.HEET-DUS.idx
http://terafile.co/18ff462518e4/Queen.2014.DVDRip.1.3DVD.HQ.XviD.AC3.HEET-DUS.sub


كود:
http://uploaded.net/file/cof3d63o/Queen.2014.DVDRip.1.3DVD.HQ.XviD.AC3.HEET-DUS.avi
http://uploaded.net/file/eveukfx0/Queen.2014.DVDRip.1.3DVD.HQ.XviD.AC3.HEET-DUS.idx
http://uploaded.net/file/zxk4i2q1/Queen.2014.DVDRip.1.3DVD.HQ.XviD.AC3.HEET-DUS.sub

Queen (2014) - 1L3 HQ-DVDRip XviD AC3 HEET FDUSD 1 or 3 2014 ac3 dus heet hqdvdrip queen xvid