Avataram (2014) 700MB 1CDRip -HD-CAMRip 2Pov2eF.jpg





كود:
General
Complete name                            : D:\Download Completed 2\CAM-RIP.Avataram.2014.Xvid.700MB.MP3-TTT.avi
Format                                   : AVI
Format/Info                              : Audio Video Interleave
File size                                : 694 MiB
Duration                                 : 2h 21mn
Overall bit rate                         : 688 Kbps

Video
ID                                       : 0
Format                                   : MPEG-4 Visual
Format profile                           : Advanced Simple@L5
Format settings, BVOP                    : No
Format settings, QPel                    : No
Format settings, GMC                     : No warppoints
Format settings, Matrix                  : Default (H.263)
Codec ID                                 : XVID
Codec ID/Hint                            : XviD
Duration                                 : 2h 21mn
Bit rate                                 : 619 Kbps
Width                                    : 608 pixels
Height                                   : 256 pixels
Display aspect ratio                     : 2.40:1
Frame rate                               : 20.000 fps
Color space                              : YUV
Chroma subsampling                       : 4:2:0
Bit depth                                : 8 bits
Scan type                                : Progressive
Compression mode                         : Lossy
Bits/(Pixel*Frame)                       : 0.199
Stream size                              : 625 MiB (90%)
Writing library                          : XviD 1.2.1 (UTC 2008-12-04)

Audio
ID                                       : 1
Format                                   : MPEG Audio
Format version                           : Version 2
Format profile                           : Layer 3
Mode                                     : Joint stereo
Mode extension                           : MS Stereo
Codec ID                                 : 55
Codec ID/Hint                            : MP3
Duration                                 : 2h 21mn
Bit rate mode                            : Constant
Bit rate                                 : 64.0 Kbps
Channel count                            : 2 channels
Sampling rate                            : 24.0 KHz
Compression mode                         : Lossy
Stream size                              : 64.6 MiB (9%)
Alignment                                : Aligned on interleaves
Interleave, duration                     : 200 ms (4.00 video frames)
Interleave, preload duration             : 216 ms
Title                                    : VTS01_1
Writing library                          : LAME3.99r
Encoding settings                        : -m j -V 4 -q 2 -lowpass 11 -b 64

Avataram (2014) 700MB 1CDRip -HD-CAMRip 0TMFqIj.png
Avataram (2014) 700MB 1CDRip -HD-CAMRip Dgp3nQ1.png
Avataram (2014) 700MB 1CDRip -HD-CAMRip 7SLvauD.png
Avataram (2014) 700MB 1CDRip -HD-CAMRip ONV6htV.png
Avataram (2014) 700MB 1CDRip -HD-CAMRip xI3Mtqb.png
Avataram (2014) 700MB 1CDRip -HD-CAMRip Ko9vfxB.png
Avataram (2014) 700MB 1CDRip -HD-CAMRip aqdxQkW.png
Avataram (2014) 700MB 1CDRip -HD-CAMRip 3xllK3U.png
Avataram (2014) 700MB 1CDRip -HD-CAMRip aVqM8HD.png



SINGLE DIRECT FAST LINKS



كود:
http://rapidgator.net/file/8a9df9edeacb6a176beb8f7fd98cc4e5/CAM-RIP.Avataram.2014.Xvid.700MB.MP3-TTT.avi.html
كود:
http://uploaded.net/file/xq4wd5g9/CAM-RIP.Avataram.2014.Xvid.700MB.MP3-TTT.avi
كود:
http://terafile.co/3f98bca69e96/CAM-RIP.Avataram.2014.Xvid.700MB.MP3-TTT.avi


Avataram (2014) - 700MB 1CDRip -HD-CAMRip XviD MP3 Telugu TTT 1cdrip 2014 700mb avataram hdcamrip mp3 telugu ttt xvid