Kadhal Solla Aasai (2014) 700MB kadhal-solla-aasai-2014-poster.jpg?w=625




كود:
General
Complete name                            : D:\Download Completed 2\Kadhal.Solla.Aasai.2014.mp4
Format                                   : MPEG-4
Format profile                           : Base Media
Codec ID                                 : isom
File size                                : 700 MiB
Duration                                 : 2h 13mn
Overall bit rate mode                    : Variable
Overall bit rate                         : 735 Kbps
Encoded date                             : UTC 2014-04-23 05:44:50
Tagged date                              : UTC 2014-04-23 05:44:50

Video
ID                                       : 1
Format                                   : AVC
Format/Info                              : Advanced Video Codec
Format profile                           : High@L2.1
Format settings, CABAC                   : Yes
Format settings, ReFrames                : 4 frames
Codec ID                                 : avc1
Codec ID/Info                            : Advanced Video Coding
Duration                                 : 2h 13mn
Bit rate                                 : 648 Kbps
Maximum bit rate                         : 4 221 Kbps
Width                                    : 640 pixels
Height                                   : 272 pixels
Display aspect ratio                     : 2.35:1
Frame rate mode                          : Constant
Frame rate                               : 23.976 fps
Color space                              : YUV
Chroma subsampling                       : 4:2:0
Bit depth                                : 8 bits
Scan type                                : Progressive
Bits/(Pixel*Frame)                       : 0.155
Stream size                              : 616 MiB (88%)
Writing library                          : x264 core 138 r2358 9e941d1
Encoding settings                        : cabac=1 / ref=3 / deblock=1:0:0 / analyse=0x3:0x113 / me=hex / subme=7 / psy=1 / psy_rd=1.00:0.00 / mixed_ref=1 / me_range=16 / chroma_me=1 / trellis=1 / 8x8dct=1 / cqm=0 / deadzone=21,11 / fast_pskip=1 / chroma_qp_offset=-2 / threads=18 / lookahead_threads=2 / sliced_threads=0 / nr=0 / decimate=1 / interlaced=0 / bluray_compat=0 / constrained_intra=0 / bframes=3 / b_pyramid=2 / b_adapt=1 / b_bias=0 / direct=1 / weightb=1 / open_gop=0 / weightp=2 / keyint=240 / keyint_min=23 / scenecut=40 / intra_refresh=0 / rc_lookahead=40 / rc=2pass / mbtree=1 / bitrate=648 / ratetol=1.0 / qcomp=0.60 / qpmin=0 / qpmax=69 / qpstep=4 / cplxblur=20.0 / qblur=0.5 / ip_ratio=1.40 / aq=1:1.00
Encoded date                             : UTC 2014-04-23 05:44:50
Tagged date                              : UTC 2014-04-23 05:46:28

Audio
ID                                       : 2
Format                                   : AAC
Format/Info                              : Advanced Audio Codec
Format profile                           : HE-AAC / LC
Codec ID                                 : 40
Duration                                 : 2h 13mn
Bit rate mode                            : Variable
Bit rate                                 : 84.2 Kbps
Maximum bit rate                         : 131 Kbps
Channel count                            : 6 channels
Channel positions                        : Front: L C R, Side: L R, LFE
Sampling rate                            : 48.0 KHz / 24.0 KHz
Compression mode                         : Lossy
Stream size                              : 80.1 MiB (11%)
Encoded date                             : UTC 2014-04-23 04:28:11
Tagged date                              : UTC 2014-04-23 05:46:28
Kadhal Solla Aasai (2014) 700MB F721iPI.png
Kadhal Solla Aasai (2014) 700MB PaAwwR8.png
Kadhal Solla Aasai (2014) 700MB gs0VOae.png
Kadhal Solla Aasai (2014) 700MB uD1e6PS.png



SINGLE DIRECT FAST LINKS


كود:
http://rapidgator.net/file/4f7e4d57ccdda2f6110eeb6f1474bf69/Kadhal.Solla.Aasai.2014.mp4.html
كود:
http://uploaded.net/file/xxba1h2v/Kadhal.Solla.Aasai.2014.mp4
كود:
http://terafile.co/786083af2571/Kadhal.Solla.Aasai.2014.mp4

Kadhal Solla Aasai (2014) - 700MB 1CDRip WEB-HDRip Tamil TTT 1cdrip 2014 700mb aasai kadhal solla tamil ttt webhdrip