RACE GURRAM (2014) 700MB 1CDRip Race_Gurram_First_Look_Poster_HD.jpg




كود:
General
Complete name                            : D:\Download Completed 2\RACE.GURRAM.2014.HD.DVDSCR.m4v
Format                                   : MPEG-4
Format profile                           : Base Media / Version 2
Codec ID                                 : mp42
File size                                : 696 MiB
Duration                                 : 2h 40mn
Overall bit rate mode                    : Variable
Overall bit rate                         : 604 Kbps
Encoded date                             : UTC 2014-04-20 11:42:01
Tagged date                              : UTC 2014-04-20 13:30:36
Writing application                      : HandBrake 0.9.9 2013052900

Video
ID                                       : 1
Format                                   : AVC
Format/Info                              : Advanced Video Codec
Format profile                           : Main@L4.0
Format settings, CABAC                   : Yes
Format settings, ReFrames                : 4 frames
Codec ID                                 : avc1
Codec ID/Info                            : Advanced Video Coding
Duration                                 : 2h 40mn
Bit rate                                 : 439 Kbps
Width                                    : 352 pixels
Height                                   : 196 pixels
Display aspect ratio                     : 2.612
Frame rate mode                          : Variable
Frame rate                               : 23.976 fps
Minimum frame rate                       : 7.111 fps
Maximum frame rate                       : 26.938 fps
Color space                              : YUV
Chroma subsampling                       : 4:2:0
Bit depth                                : 8 bits
Scan type                                : Progressive
Bits/(Pixel*Frame)                       : 0.266
Stream size                              : 506 MiB (73%)
Writing library                          : x264 core 130 r2273 b3065e6
Encoding settings                        : cabac=1 / ref=1 / deblock=1:0:0 / analyse=0x1:0x111 / me=hex / subme=2 / psy=1 / psy_rd=1.00:0.00 / mixed_ref=0 / me_range=16 / chroma_me=1 / trellis=0 / 8x8dct=0 / cqm=0 / deadzone=21,11 / fast_pskip=1 / chroma_qp_offset=0 / threads=3 / lookahead_threads=1 / sliced_threads=0 / nr=0 / decimate=1 / interlaced=0 / bluray_compat=0 / constrained_intra=0 / bframes=3 / b_pyramid=2 / b_adapt=1 / b_bias=0 / direct=1 / weightb=1 / open_gop=0 / weightp=1 / keyint=240 / keyint_min=24 / scenecut=40 / intra_refresh=0 / rc_lookahead=10 / rc=crf / mbtree=1 / crf=20.0 / qcomp=0.60 / qpmin=0 / qpmax=69 / qpstep=4 / vbv_maxrate=20000 / vbv_bufsize=25000 / crf_max=0.0 / nal_hrd=none / ip_ratio=1.40 / aq=1:1.00
Encoded date                             : UTC 2014-04-20 11:42:01
Tagged date                              : UTC 2014-04-20 13:30:36
Color primaries                          : BT.601 PAL
Transfer characteristics                 : BT.709
Matrix coefficients                      : BT.601

Audio
ID                                       : 2
Format                                   : AAC
Format/Info                              : Advanced Audio Codec
Format profile                           : LC
Codec ID                                 : 40
Duration                                 : 2h 40mn
Bit rate mode                            : Variable
Bit rate                                 : 160 Kbps
Maximum bit rate                         : 220 Kbps
Channel count                            : 2 channels
Channel positions                        : Front: L R
Sampling rate                            : 48.0 KHz
Compression mode                         : Lossy
Stream size                              : 184 MiB (26%)
Language                                 : English
Encoded date                             : UTC 2014-04-20 11:42:01
Tagged date                              : UTC 2014-04-20 13:30:35

Menu
ID                                       : 3
Codec ID                                 : text
Duration                                 : 2h 40mn
Encoded date                             : UTC 2014-04-20 11:42:01
Tagged date                              : UTC 2014-04-20 13:30:36
Bit rate mode                            : VBR

RACE GURRAM (2014) 700MB 1CDRip y4am.png
RACE GURRAM (2014) 700MB 1CDRip erz5.png





SINGLE DIRECT FAST LINKS

كود:
http://rapidgator.net/file/a35fcdb808b80db0e1f8cd281697d870/RACE.GURRAM.2014.HD.DVDSCR.m4v.html
كود:
http://uploaded.net/file/qr6waexz/RACE.GURRAM.2014.HD.DVDSCR.m4v
كود:
http://terafile.co/2b209632d151/RACE.GURRAM.2014.HD.DVDSCR.m4v

RACE GURRAM (2014) - 700MB 1CDRip DVDscr Team TT Exclusive 1cdrip 2014 700mb dvdscr exclusive gurram race team tt