Highway (2014) Untouched 720p WebHD 42ra.jpg





كود:
Complete name                            : Highway(2014)-Untouched WebHD-AVC-AAC-[ExDR ExclusivE]\Highway(2014)-Untouched WebHD-AVC-AAC-[ExDR ExclusivE].mp4
Format                                   : MPEG-4
Format profile                           : Base Media
Codec ID                                 : isom
File size                                : 2.59 GiB
Duration                                 : 2h 11mn
Overall bit rate mode                    : Variable
Overall bit rate                         : 2 830 Kbps
Encoded date                             : UTC 2014-04-18 09:40:51
Tagged date                              : UTC 2014-04-18 09:40:51

Video
ID                                       : 1
Format                                   : AVC
Format/Info                              : Advanced Video Codec
Format profile                           : Main@L3.1
Format settings, CABAC                   : Yes
Format settings, ReFrames                : 3 frames
Codec ID                                 : avc1
Codec ID/Info                            : Advanced Video Coding
Duration                                 : 2h 11mn
Bit rate                                 : 2 649 Kbps
Maximum bit rate                         : 13.3 Mbps
Width                                    : 1 280 pixels
Height                                   : 544 pixels
Display aspect ratio                     : 2.35:1
Frame rate mode                          : Constant
Frame rate                               : 24.000 fps
Color space                              : YUV
Chroma subsampling                       : 4:2:0
Bit depth                                : 8 bits
Scan type                                : Progressive
Bits/(Pixel*Frame)                       : 0.159
Stream size                              : 2.41 GiB (93%)
Writing library                          : x264 core 138 r2358 9e941d1

Audio
ID                                       : 2
Format                                   : AAC
Format/Info                              : Advanced Audio Codec
Format profile                           : LC
Codec ID                                 : 40
Duration                                 : 2h 11mn
Bit rate mode                            : Variable
Bit rate                                 : 192 Kbps
Maximum bit rate                         : 235 Kbps
Channel(s)                               : 2 channels
Channel positions                        : Front: L R
Sampling rate                            : 48.0 KHz
Compression mode                         : Lossy
Stream size                              : 180 MiB (7%)
Encoded date                             : UTC 2014-04-18 09:33:48
Tagged date                              : UTC 2014-04-18 09:41:41


Highway (2014) Untouched 720p WebHD 1qejYfU.jpg






SINGLE DIRECT FAST LINKS


كود:
http://terafile.co/ec1aca31595d/Highway.2014.Untouched.WebHD.AVC.AAC-ExDR_ExclusivE.mp4
كود:
http://rapidgator.net/file/f8d56c451e8e98601710616f28d91b8f/Highway.2014.Untouched.WebHD.AVC.AAC-ExDR_ExclusivE.mp4.html
كود:
http://uploaded.net/file/0shcxvtf/Highway.2014.Untouched.WebHD.AVC.AAC-ExDR%20ExclusivE.mp4
1GB LINKS
كود:
http://terafile.co/20d864da3505/Highway.2014.Untouched.WebHD.AVC.AAC-ExDR_ExclusivE.mp4.001
http://terafile.co/0f5962b0f853/Highway.2014.Untouched.WebHD.AVC.AAC-ExDR_ExclusivE.mp4.002
http://terafile.co/6c71a08f6690/Highway.2014.Untouched.WebHD.AVC.AAC-ExDR_ExclusivE.mp4.003

كود:
http://rapidgator.net/file/70afdd6d13bd7e024b7c3d79f51151ad/Highway.2014.Untouched.WebHD.AVC.AAC-ExDR_ExclusivE.mp4.001.html
http://rapidgator.net/file/1eb1b972040f9be69d327031141db70d/Highway.2014.Untouched.WebHD.AVC.AAC-ExDR_ExclusivE.mp4.002.html
http://rapidgator.net/file/654bfcfdaaaa5c3f9447b219f4fea729/Highway.2014.Untouched.WebHD.AVC.AAC-ExDR_ExclusivE.mp4.003.html

كود:
http://uploaded.net/file/xpng1pyg/Highway.2014.Untouched.WebHD.AVC.AAC-ExDR%20ExclusivE.mp4.001
http://uploaded.net/file/gh3q1qsg/Highway.2014.Untouched.WebHD.AVC.AAC-ExDR%20ExclusivE.mp4.002
http://uploaded.net/file/oabwnb6d/Highway.2014.Untouched.WebHD.AVC.AAC-ExDR%20ExclusivE.mp4.003

Highway (2014) - Untouched 720p WebHD AVC AAC FExDR ExclusivED 2014 Hlh avc exclusive exdr highway untouched webhd