Disha Main (2014) DVDRip x264 ussssssss.jpg





كود:
General
Format : Matroska
Format version : Version 2
File size : 477 MiB
Duration : 2h 4mn
Overall bit rate : 537 Kbps
Encoded date : UTC 2014-04-17 22:37:22
Writing application : mkvmerge v6.8.0 ('Theme for Great Cities') 32bit built on Mar 2 2014 21:27:07
Writing library : libebml v1.3.0 + libmatroska v1.4.1

Video
ID : 1
Format : AVC
Format/Info : Advanced Video Codec
Format profile : High@L2.1
Format settings, CABAC : Yes
Format settings, ReFrames : 4 frames
Codec ID : V_MPEG4/ISO/AVC
Duration : 2h 4mn
Bit rate : 334 Kbps
Width : 640 pixels
Height : 272 pixels
Display aspect ratio : 2.35:1
Frame rate mode : Constant
Frame rate : 23.976 fps
Color space : YUV
Chroma subsampling : 4:2:0
Bit depth : 8 bits
Scan type : Progressive
Bits/(Pixel*Frame) : 0.080
Stream size : 297 MiB (62%)
Writing library : x264 core 129 r2245 bc13772
Default : Yes
Forced : No

Audio
ID : 2
Format : AC-3
Format/Info : Audio Coding 3
Mode extension : CM (complete main)
Format settings, Endianness : Big
Codec ID : A_AC3
Duration : 2h 4mn
Bit rate mode : Constant
Bit rate : 192 Kbps
Channel(s) : 2 channels
Channel positions : Front: L R
Sampling rate : 48.0 KHz
Bit depth : 16 bits
Compression mode : Lossy
Stream size : 170 MiB (36%)
Default : Yes
Forced : No

Disha Main (2014) DVDRip x264 zFx86BD.jpg
Disha Main (2014) DVDRip x264 yF45qf8.jpg
Disha Main (2014) DVDRip x264 GOSwc8a.jpg
Disha Main (2014) DVDRip x264 DsSSvJe.jpg
Disha Main (2014) DVDRip x264 kHLdU04.jpg
Disha Main (2014) DVDRip x264 EvWtH0c.jpg



SINGLE DIRECT FAST LINKS

كود:
http://terafile.co/7679472579bf/US.DISHA.MAIN.2014.1CD.DVDRip.X264.AAC.5.1-DUS.mkv
كود:
http://rapidgator.net/file/ac6a04473db679f061d80a092adcf3a7/US.DISHA.MAIN.2014.1CD.DVDRip.X264.AAC.5.1-DUS.mkv.html
كود:
http://uploaded.net/file/21baz861/US.DISHA.MAIN.2014.1CD.DVDRip.X264.AAC.5.1-DUS.mkv

Us Disha Main (2014) - 1CD DVDRip x264 DUS 1cd 2014 disha dus dvdrip main