Chandra (2014) Suara DVDRip XviD s0gQpjz.jpg





كود:
Format                                  : AVI
Format/Info                              : Audio Video Interleave
File size                                : 687 MiB
Duration                                 : 2h 0mn
Overall bit rate                         : 797 Kbps

ID                                       : 0
Format                                   : MPEG-4 Visual
Format profile                           : Advanced Simple@L5
Format settings, BVOP                    : 3
Format settings, QPel                    : No
Format settings, GMC                     : No warppoints
Format settings, Matrix                  : Default (H.263)
Codec ID                                 : XVID
Codec ID/Hint                            : XviD
Duration                                 : 2h 0mn
Bit rate                                 : 711 Kbps
Width                                    : 640 pixels
Height                                   : 272 pixels
Display aspect ratio                     : 2.35:1
Frame rate                               : 23.976 fps
Color space                              : YUV
Chroma subsampling                       : 4:2:0
Bit depth                                : 8 bits
Scan type                                : Progressive
Compression mode                         : Lossy
Bits/(Pixel*Frame)                       : 0.170
Stream size                              : 613 MiB (89%)
Writing library                          : XviD 1.2.1 (UTC 2008-12-04)

ID                                       : 1
Format                                   : MPEG Audio
Format version                           : Version 1
Format profile                           : Layer 3
Mode                                     : Joint stereo
Mode extension                           : MS Stereo
Codec ID                                 : 55
Codec ID/Hint                            : MP3
Duration                                 : 2h 0mn
Bit rate mode                            : Constant
Bit rate                                 : 80.0 Kbps
Channel(s)                               : 2 channels
Sampling rate                            : 32.0 KHz
Compression mode                         : Lossy
Stream size                              : 68.9 MiB (10%)
Alignment                                : Aligned on interleaves
Interleave, duration                     : 167 ms (4.00 video frames)
Interleave, preload duration             : 216 ms
Title                                    : VTS_03_1 T81 2_0ch
Writing library                          : LAME3.99r
Encoding settings                        : -m j -V 4 -q 2 -lowpass 13.5 -b 80

Chandra (2014) Suara DVDRip XviD KX20s10.png
Chandra (2014) Suara DVDRip XviD IEvMxki.png
Chandra (2014) Suara DVDRip XviD Vljb4px.png
Chandra (2014) Suara DVDRip XviD kyaayGi.png


SINGLE DIRECT FAST LINKS

كود:
http://terafile.co/34610e23d4f5/Chandra.2014.Suara.DVDRip.Xvid.700MB.MP3-TTT.avi

كود:
http://rapidgator.net/file/57beae0a17a22975d092867cf5b072e4/Chandra.2014.Suara.DVDRip.Xvid.700MB.MP3-TTT.avi.html
كود:
http://uploaded.net/file/sora6g4w/Chandra.2014.Suara.DVDRip.Xvid.700MB.MP3-TTT.avi

Chandra (2014) - Suara DVDRip XviD 700MB MP3 TTT 2014 700mb chandra dvdrip mp3 suara ttt xvid