Dishkiyaoon (2014) 700MB 1CDRip DVDRip Dishkiyaoon-2014.jpg?resize=664,960





كود:
General
Unique ID                                : 64484182741242192401771391238010935693 (0x308333AC50AA178D368EFC6DDA21998D)
Complete name                            : D:\Torrent Completed\Dishkiyaoon.2014.1CD.X264.DVDRIP.MSUBS.AC3.5.1-Team.Telly.Exclusive\Dishkiyaoon.2014.1CD.X264.DVDRIP.MSUBS.AC3.5.1-Team.Telly.Exclusive.mkv
Format                                   : Matroska
Format version                           : Version 2
File size                                : 797 MiB
Duration                                 : 1h 54mn
Overall bit rate                         : 977 Kbps
Writing application                      : HandBrake 0.9.9
Writing library                          : libmkv 0.6.5

Video
ID                                       : 1
Format                                   : AVC
Format/Info                              : Advanced Video Codec
Format profile                           : Main@L4.0
Format settings, CABAC                   : Yes
Format settings, ReFrames                : 4 frames
Codec ID                                 : V_MPEG4/ISO/AVC
Duration                                 : 1h 54mn
Bit rate                                 : 510 Kbps
Width                                    : 640 pixels
Height                                   : 272 pixels
Display aspect ratio                     : 2.35:1
Frame rate mode                          : Constant
Frame rate                               : 29.970 fps
Color space                              : YUV
Chroma subsampling                       : 4:2:0
Bit depth                                : 8 bits
Scan type                                : Progressive
Bits/(Pixel*Frame)                       : 0.098
Stream size                              : 416 MiB (52%)
Writing library                          : x264 core 130 r2273 b3065e6
Encoding settings                        : cabac=1 / ref=1 / deblock=1:0:0 / analyse=0x1:0x111 / me=hex / subme=2 / psy=1 / psy_rd=1.00:0.00 / mixed_ref=0 / me_range=16 / chroma_me=1 / trellis=0 / 8x8dct=0 / cqm=0 / deadzone=21,11 / fast_pskip=1 / chroma_qp_offset=0 / threads=12 / lookahead_threads=2 / sliced_threads=0 / nr=0 / decimate=1 / interlaced=0 / bluray_compat=0 / constrained_intra=0 / bframes=3 / b_pyramid=2 / b_adapt=1 / b_bias=0 / direct=1 / weightb=1 / open_gop=0 / weightp=1 / keyint=240 / keyint_min=24 / scenecut=40 / intra_refresh=0 / rc_lookahead=10 / rc=crf / mbtree=1 / crf=20.0 / qcomp=0.60 / qpmin=0 / qpmax=69 / qpstep=4 / vbv_maxrate=20000 / vbv_bufsize=25000 / crf_max=0.0 / nal_hrd=none / ip_ratio=1.40 / aq=1:1.00
Language                                 : English
Default                                  : Yes
Forced                                   : No
Color primaries                          : BT.601 NTSC
Transfer characteristics                 : BT.709
Matrix coefficients                      : BT.601

Audio
ID                                       : 2
Format                                   : AC-3
Format/Info                              : Audio Coding 3
Mode extension                           : CM (complete main)
Format settings, Endianness              : Big
Codec ID                                 : A_AC3
Duration                                 : 1h 54mn
Bit rate mode                            : Constant
Bit rate                                 : 448 Kbps
Channel count                            : 6 channels
Channel positions                        : Front: L C R, Side: L R, LFE
Sampling rate                            : 48.0 KHz
Bit depth                                : 16 bits
Compression mode                         : Lossy
Stream size                              : 365 MiB (46%)
Language                                 : Hindi
Default                                  : Yes
Forced                                   : No

Text #1
ID                                       : 3
Format                                   : VobSub
Codec ID                                 : S_VOBSUB
Codec ID/Info                            : The same subtitle format used on DVDs
Language                                 : English
Default                                  : No
Forced                                   : No

Text #2
ID                                       : 4
Format                                   : VobSub
Codec ID                                 : S_VOBSUB
Codec ID/Info                            : The same subtitle format used on DVDs
Language                                 : Arabic
Default                                  : No
Forced                                   : No

Menu
00:00:00.000                             : Chapter 1
00:03:25.271                             : Chapter 2
00:05:48.414                             : Chapter 3
00:08:58.104                             : Chapter 4
00:20:38.303                             : Chapter 5
00:22:24.910                             : Chapter 6
00:26:02.627                             : Chapter 7
00:29:37.342                             : Chapter 8
00:31:35.960                             : Chapter 9
00:36:25.750                             : Chapter 10
00:38:24.869                             : Chapter 11
00:43:02.146                             : Chapter 12
00:47:32.416                             : Chapter 13
00:55:13.877                             : Chapter 14
01:04:16.586                             : Chapter 15
01:09:13.382                             : Chapter 16
01:22:04.152                             : Chapter 17
01:25:04.332                             : Chapter 18
01:38:05.613                             : Chapter 19
01:39:19.186                             : Chapter 20
01:50:57.884                             : Chapter 21
01:53:59.566                             : Chapter 22
Dishkiyaoon (2014) 700MB 1CDRip DVDRip vlcsnap-2014-04-18-20h32m14s245.png
Dishkiyaoon (2014) 700MB 1CDRip DVDRip vlcsnap-2014-04-18-20h32m20s3.png
Dishkiyaoon (2014) 700MB 1CDRip DVDRip vlcsnap-2014-04-18-20h32m26s74.png
Dishkiyaoon (2014) 700MB 1CDRip DVDRip vlcsnap-2014-04-18-20h32m35s153.png
Dishkiyaoon (2014) 700MB 1CDRip DVDRip vlcsnap-2014-04-18-20h32m42s240.png
Dishkiyaoon (2014) 700MB 1CDRip DVDRip vlcsnap-2014-04-18-20h32m50s64.png
Dishkiyaoon (2014) 700MB 1CDRip DVDRip vlcsnap-2014-04-18-20h32m56s103.png
Dishkiyaoon (2014) 700MB 1CDRip DVDRip vlcsnap-2014-04-18-20h33m03s175.png
Dishkiyaoon (2014) 700MB 1CDRip DVDRip vlcsnap-2014-04-18-20h33m20s82.png
Dishkiyaoon (2014) 700MB 1CDRip DVDRip vlcsnap-2014-04-18-20h33m26s196.png
Dishkiyaoon (2014) 700MB 1CDRip DVDRip vlcsnap-2014-04-18-20h33m34s240.png
Dishkiyaoon (2014) 700MB 1CDRip DVDRip vlcsnap-2014-04-18-20h33m41s93.png
Dishkiyaoon (2014) 700MB 1CDRip DVDRip vlcsnap-2014-04-18-20h33m47s104.png




SINGLE DIRECT FAST LINKS

كود:
http://terafile.co/ce1b8b561340/Dishkiyaoon.2014.1CD.X264.DVDRIP.MSUBS.AC3.5.1-Team.Telly.Exclusive.mkv
كود:
http://rapidgator.net/file/9a52e4b262bcf0dac793035249d23aad/Dishkiyaoon.2014.1CD.X264.DVDRIP.MSUBS.AC3.5.1-Team.Telly.Exclusive.mkv.html

كود:
http://uploaded.net/file/isbct01k/Dishkiyaoon.2014.1CD.X264.DVDRIP.MSUBS.AC3.5.1-Team.Telly.Exclusive.mkv

Dishkiyaoon (2014) - 700MB 1CDRip DVDRip x264 Msubs TT Exclusive 1cdrip 2014 700mb dishkiyaoon dvdrip exclusive msubs tt