Thalaivaa (2014) 720p Untouched Web-HD Thalaivaa-Flim-Poster.jpg






كود:
General
Complete name                            : D:\Download Completed 2\Thalaivaa.2014.Hindi.Untouched.720p.WEBHD.AAC-Team.Telly.Exclusive.mp4
Format                                   : MPEG-4
Format profile                           : Base Media / Version 2
Codec ID                                 : mp42
File size                                : 1.71 GiB
Duration                                 : 2h 21mn
Overall bit rate mode                    : Variable
Overall bit rate                         : 1 736 Kbps
Encoded date                             : UTC 2014-04-16 20:05:46
Tagged date                              : UTC 2014-04-16 20:05:46
gsst                                     : 0
gstd                                     : 8478696
gssd                                     : BADC20981HH1397797986076506
gshh                                     : r2---sn-25g7sn7r.googlevideo.com

Video
ID                                       : 1
Format                                   : AVC
Format/Info                              : Advanced Video Codec
Format profile                           : High@L3.1
Format settings, CABAC                   : Yes
Format settings, ReFrames                : 1 frame
Format settings, GOP                     : M=1, N=60
Codec ID                                 : avc1
Codec ID/Info                            : Advanced Video Coding
Duration                                 : 2h 21mn
Bit rate                                 : 1 542 Kbps
Maximum bit rate                         : 5 817 Kbps
Width                                    : 1 280 pixels
Height                                   : 720 pixels
Display aspect ratio                     : 16:9
Frame rate mode                          : Constant
Frame rate                               : 25.000 fps
Color space                              : YUV
Chroma subsampling                       : 4:2:0
Bit depth                                : 8 bits
Scan type                                : Progressive
Bits/(Pixel*Frame)                       : 0.067
Stream size                              : 1.52 GiB (89%)
Tagged date                              : UTC 2014-04-16 20:15:40

Audio
ID                                       : 2
Format                                   : AAC
Format/Info                              : Advanced Audio Codec
Format profile                           : LC
Codec ID                                 : 40
Duration                                 : 2h 21mn
Bit rate mode                            : Variable
Bit rate                                 : 192 Kbps
Maximum bit rate                         : 203 Kbps
Channel count                            : 2 channels
Channel positions                        : Front: L R
Sampling rate                            : 44.1 KHz
Compression mode                         : Lossy
Stream size                              : 194 MiB (11%)
Title                                    : IsoMedia File Produced by Google, 5-11-2011

Thalaivaa (2014) 720p Untouched Web-HD vlcsnap-2014-04-18-10h53m05s113.png
Thalaivaa (2014) 720p Untouched Web-HD vlcsnap-2014-04-18-10h53m26s62.png
Thalaivaa (2014) 720p Untouched Web-HD vlcsnap-2014-04-18-10h53m36s156.png
Thalaivaa (2014) 720p Untouched Web-HD vlcsnap-2014-04-18-10h54m04s192.png
Thalaivaa (2014) 720p Untouched Web-HD vlcsnap-2014-04-18-10h53m16s209.png
Thalaivaa (2014) 720p Untouched Web-HD vlcsnap-2014-04-18-10h53m30s106.png
Thalaivaa (2014) 720p Untouched Web-HD vlcsnap-2014-04-18-10h53m48s29.png
Thalaivaa (2014) 720p Untouched Web-HD vlcsnap-2014-04-18-10h54m00s140.png
Thalaivaa (2014) 720p Untouched Web-HD vlcsnap-2014-04-18-10h53m54s87.png





SINGLE DIRECT FAST LINKS



كود:
http://terafile.co/c4a8505f9142/Thalaivaa.2014.Hindi.Untouched.720p.WEBHD.AAC-Team.Telly.Exclusive.mp4

كود:
http://rapidgator.net/file/6d8ac1c5b587d8f87d12435305f198ae/Thalaivaa.2014.Hindi.Untouched.720p.WEBHD.AAC-Team.Telly.Exclusive.mp4.html

كود:
http://uploaded.net/file/eanhzlng/Thalaivaa.2014.Hindi.Untouched.720p.WEBHD.AAC-Team.Telly.Exclusive.mp4

Thalaivaa (2014) 720p - Untouched Web-HD AAC Hindi Team IcTv Exclusive 2014 Hlh exclusive hindi ictv team thalaivaa untouched webhd