Legend (2014) (New Source) 1CDRip Balakrishna-Legend-2014-Telugu-Movie-New-Wallpapers-HD-6_f4ac2a.jpg







كود:
General
Complete name                            : D:\Download Completed 1\Legend.2014.Telugu.Movie.New.Source.DVDSCR.XviD.1CD-Team.Telly.avi
Format                                   : AVI
Format/Info                              : Audio Video Interleave
File size                                : 689 MiB
Duration                                 : 2h 33mn
Overall bit rate                         : 627 Kbps

Video
ID                                       : 0
Format                                   : MPEG-4 Visual
Format profile                           : Advanced Simple@L5
Format settings, BVOP                    : 2
Format settings, QPel                    : No
Format settings, GMC                     : No warppoints
Format settings, Matrix                  : Default (H.263)
Codec ID                                 : XVID
Codec ID/Hint                            : XviD
Duration                                 : 2h 33mn
Bit rate                                 : 540 Kbps
Width                                    : 640 pixels
Height                                   : 272 pixels
Display aspect ratio                     : 2.35:1
Frame rate                               : 29.970 fps
Color space                              : YUV
Chroma subsampling                       : 4:2:0
Bit depth                                : 8 bits
Scan type                                : Progressive
Compression mode                         : Lossy
Bits/(Pixel*Frame)                       : 0.103
Stream size                              : 593 MiB (86%)
Writing library                          : XviD 1.2.1 (UTC 2008-12-04)

Audio
ID                                       : 1
Format                                   : MPEG Audio
Format version                           : Version 1
Format profile                           : Layer 3
Mode                                     : Joint stereo
Mode extension                           : MS Stereo
Codec ID                                 : 55
Codec ID/Hint                            : MP3
Duration                                 : 2h 33mn
Bit rate mode                            : Constant
Bit rate                                 : 80.0 Kbps
Channel count                            : 2 channels
Sampling rate                            : 32.0 KHz
Compression mode                         : Lossy
Stream size                              : 87.9 MiB (13%)
Alignment                                : Aligned on interleaves
Interleave, duration                     : 133 ms (4.00 video frames)
Interleave, preload duration             : 216 ms
Title                                    : VTS_01_1 T80 2_0ch 192Kbps DELAY 0ms
Writing library                          : LAME3.99r
Encoding settings                        : -m j -V 4 -q 2 -lowpass 13.5 -b 80


Legend (2014) (New Source) 1CDRip 0WdZQZr.jpg Legend (2014) (New Source) 1CDRip 4zT8zBK.jpg Legend (2014) (New Source) 1CDRip Tr7bFke.jpg Legend (2014) (New Source) 1CDRip zJ1newG.jpg Legend (2014) (New Source) 1CDRip 3T9F35w.jpg Legend (2014) (New Source) 1CDRip JiR2Arr.jpg Legend (2014) (New Source) 1CDRip 7YGoA8E.jpg Legend (2014) (New Source) 1CDRip u1zLije.jpg Legend (2014) (New Source) 1CDRip fL1Ak3P.jpg Legend (2014) (New Source) 1CDRip G5e67xa.jpg Legend (2014) (New Source) 1CDRip KvOij4M.jpg Legend (2014) (New Source) 1CDRip ECZnEjO.jpg Legend (2014) (New Source) 1CDRip KpwMPQJ.jpg Legend (2014) (New Source) 1CDRip c76NLXa.jpg Legend (2014) (New Source) 1CDRip tm2WYDn.jpg Legend (2014) (New Source) 1CDRip 4HecUbR.jpg Legend (2014) (New Source) 1CDRip wAOyJ36.jpg Legend (2014) (New Source) 1CDRip nxzP9Ac.jpg






SINGLE DIRECT FAST LINKS

كود:
http://rapidgator.net/file/9622ab69e01395ab419df2507e1b3b27/Legend.2014.Telugu.Movie.New.Source.DVDSCR.XviD.1CD-Team.Telly.avi.html
كود:
http://terafile.co/28645825665c/Legend.2014.Telugu.Movie.New.Source.DVDSCR.XviD.1CD-Team.Telly.avi
كود:
http://uploaded.net/file/dsfcan35/Legend.2014.Telugu.Movie.New.Source.DVDSCR.XviD.1CD-Team.Telly.avi

Legend (2014) (New Source) - 1CDRip DVDSCR XviD Team TT Exclusive 1cdrip 2014 dvdscr exclusive legend source team tt xvid