Weeping (2014) 720p DVDRip x264 kzss.jpg





كود:
General
Unique ID                                : 184460136168656400945154654143505231556 (0x8AC5BADFEC5418DFB270FA4758CFEEC4)
Complete name                            : Weepping Boy (2014) 720p x264 DD5.1 Esub.mkv
Format                                   : Matroska
Format version                           : Version 2
File size                                : 1.00 GiB
Duration                                 : 1h 29mn
Overall bit rate mode                    : Variable
Overall bit rate                         : 1 595 Kbps
Encoded date                             : UTC 2014-04-17 01:14:04
Writing application                      : mkvmerge v6.5.0 ('Isn't she lovely') built on Oct 20 2013 12:50:05
Writing library                          : libebml v1.3.0 + libmatroska v1.4.1

Video
ID                                       : 1
Format                                   : AVC
Format/Info                              : Advanced Video Codec
Format profile                           : High@L4.1
Format settings, CABAC                   : Yes
Format settings, ReFrames                : 4 frames
Codec ID                                 : V_MPEG4/ISO/AVC
Duration                                 : 1h 29mn
Bit rate mode                            : Variable
Bit rate                                 : 1 145 Kbps
Maximum bit rate                         : 31.2 Mbps
Width                                    : 1 280 pixels
Height                                   : 544 pixels
Display aspect ratio                     : 2.35:1
Frame rate mode                          : Constant
Frame rate                               : 23.976 fps
Color space                              : YUV
Chroma subsampling                       : 4:2:0
Bit depth                                : 8 bits
Scan type                                : Progressive
Bits/(Pixel*Frame)                       : 0.069
Stream size                              : 717 MiB (70%)
Writing library                          : x264 core 138 r2358 9e941d1
Encoding settings                        : cabac=1 / ref=4 / deblock=1:-1:-1 / analyse=0x3:0x133 / me=umh / subme=9 / psy=1 / psy_rd=1.00:0.15 / mixed_ref=1 / me_range=24 / chroma_me=1 / trellis=2 / 8x8dct=1 / cqm=0 / deadzone=21,11 / fast_pskip=0 / chroma_qp_offset=-3 / threads=4 / lookahead_threads=1 / sliced_threads=0 / nr=0 / decimate=1 / interlaced=0 / bluray_compat=0 / constrained_intra=0 / bframes=3 / b_pyramid=2 / b_adapt=2 / b_bias=0 / direct=3 / weightb=1 / open_gop=0 / weightp=2 / keyint=240 / keyint_min=23 / scenecut=40 / intra_refresh=0 / rc_lookahead=60 / rc=2pass / mbtree=1 / bitrate=1145 / ratetol=1.0 / qcomp=0.60 / qpmin=0 / qpmax=69 / qpstep=4 / cplxblur=20.0 / qblur=0.5 / vbv_maxrate=31250 / vbv_bufsize=31250 / nal_hrd=vbr / ip_ratio=1.40 / aq=1:1.00
Default                                  : Yes
Forced                                   : No
Color primaries                          : BT.709
Matrix coefficients                      : BT.709

Audio
ID                                       : 2
Format                                   : AC-3
Format/Info                              : Audio Coding 3
Mode extension                           : CM (complete main)
Format settings, Endianness              : Big
Codec ID                                 : A_AC3
Duration                                 : 1h 29mn
Bit rate mode                            : Constant
Bit rate                                 : 448 Kbps
Channel(s)                               : 6 channels
Channel positions                        : Front: L C R, Side: L R, LFE
Sampling rate                            : 48.0 KHz
Bit depth                                : 16 bits
Compression mode                         : Lossy
Stream size                              : 288 MiB (28%)
Default                                  : Yes
Forced                                   : No

Text
ID                                       : 3
Format                                   : VobSub
Muxing mode                              : zlib
Codec ID                                 : S_VOBSUB
Codec ID/Info                            : The same subtitle format used on DVDs
Language                                 : English
Default                                  : Yes
Forced                                   : No

Menu
00:00:00.000                             : en:Chapter 01
00:04:48.567                             : en:Chapter 02
00:18:06.901                             : en:Chapter 03
00:21:15.934                             : en:Chapter 04
00:21:56.635                             : en:Chapter 05
00:29:27.336                             : en:Chapter 06
00:33:35.703                             : en:Chapter 07
00:39:48.637                             : en:Chapter 08
00:45:48.171                             : en:Chapter 09
00:48:21.605                             : en:Chapter 10
00:51:00.605                             : en:Chapter 11
00:53:00.439                             : en:Chapter 12
00:55:38.506                             : en:Chapter 13
00:56:45.740                             : en:Chapter 14
01:01:13.541                             : en:Chapter 15
01:03:23.308                             : en:Chapter 16
01:06:54.808                             : en:Chapter 17
01:13:18.375                             : en:Chapter 18
01:23:10.575                             : en:Chapter 19
01:26:30.409                             : en:Chapter 20

Weeping (2014) 720p DVDRip x264 q8iCIHZ.png
Weeping (2014) 720p DVDRip x264 EJKXHsr.jpg
Weeping (2014) 720p DVDRip x264 Y8s3IBB.png
Weeping (2014) 720p DVDRip x264 9qOOGlh.png







SINGLE DIRECT FAST LINKS

كود:
http://terafile.co/f3c7738311d7/Weepping.Boy.2014.720p.x264.DD5.1.Esub-TTT.mkv


كود:
http://rapidgator.net/file/11ecf522049f47d5b34708c8c72464af/Weepping.Boy.2014.720p.x264.DD5.1.Esub-TTT.mkv.html
كود:
http://uploaded.net/file/kxke10g5/Weepping.Boy.2014.720p.x264.DD5.1.Esub-TTT.mkv

Weeping Boy (2014) - 720p DVDRip x264 DD5>1 Esub TTT 2014 boy dd51 dvdrip esub ttt weeping