Mokssh (2014) 700MB 1CDRip DVDRip 72050902541fe.jpg





كود:
General
Unique ID                                : 242112723508590201642206410416683278489 (0xB62536E3B85D777F926BD2ABEEC0E099)
Complete name                            : D:\Download Completed 1\Mokssh.2014.1CD.x264.DVDRIP-Team.Telly.Exclusive.mkv
Format                                   : Matroska
Format version                           : Version 2
File size                                : 698 MiB
Duration                                 : 1h 44mn
Overall bit rate                         : 934 Kbps
Encoded date                             : UTC 2014-04-17 01:43:00
Writing application                      : mkvmerge v6.5.0 ('Isn't she lovely') built on Oct 20 2013 12:50:05
Writing library                          : libebml v1.3.0 + libmatroska v1.4.1

Video
ID                                       : 1
Format                                   : AVC
Format/Info                              : Advanced Video Codec
Format profile                           : High@L5.2
Format settings, CABAC                   : Yes
Format settings, ReFrames                : 4 frames
Codec ID                                 : V_MPEG4/ISO/AVC
Duration                                 : 1h 44mn
Bit rate                                 : 852 Kbps
Width                                    : 640 pixels
Height                                   : 272 pixels
Display aspect ratio                     : 2.35:1
Frame rate mode                          : Constant
Frame rate                               : 29.970 fps
Color space                              : YUV
Chroma subsampling                       : 4:2:0
Bit depth                                : 8 bits
Scan type                                : Progressive
Bits/(Pixel*Frame)                       : 0.163
Stream size                              : 624 MiB (89%)
Writing library                          : x264 core 138 r2358 9e941d1
Encoding settings                        : cabac=1 / ref=3 / deblock=1:0:0 / analyse=0x3:0x113 / me=umh / subme=7 / psy=1 / psy_rd=1.00:0.15 / mixed_ref=1 / me_range=16 / chroma_me=1 / trellis=1 / 8x8dct=1 / cqm=0 / deadzone=21,11 / fast_pskip=1 / chroma_qp_offset=-3 / threads=12 / lookahead_threads=2 / sliced_threads=0 / nr=0 / decimate=1 / interlaced=0 / bluray_compat=0 / constrained_intra=0 / bframes=3 / b_pyramid=2 / b_adapt=1 / b_bias=0 / direct=1 / weightb=1 / open_gop=0 / weightp=2 / keyint=300 / keyint_min=29 / scenecut=40 / intra_refresh=0 / rc_lookahead=40 / rc=2pass / mbtree=1 / bitrate=852 / ratetol=1.0 / qcomp=0.60 / qpmin=0 / qpmax=69 / qpstep=4 / cplxblur=20.0 / qblur=0.5 / vbv_maxrate=300000 / vbv_bufsize=300000 / nal_hrd=none / ip_ratio=1.40 / aq=1:1.00
Language                                 : English
Default                                  : Yes
Forced                                   : No

Audio
ID                                       : 2
Format                                   : MPEG Audio
Format version                           : Version 1
Format profile                           : Layer 3
Mode                                     : Joint stereo
Mode extension                           : MS Stereo
Codec ID                                 : A_MPEG/L3
Codec ID/Hint                            : MP3
Duration                                 : 1h 44mn
Bit rate mode                            : Constant
Bit rate                                 : 80.0 Kbps
Channel count                            : 2 channels
Sampling rate                            : 32.0 KHz
Compression mode                         : Lossy
Stream size                              : 59.8 MiB (9%)
Writing library                          : LAME3.99r
Encoding settings                        : -m j -V 4 -q 2 -lowpass 13.5 -b 80
Default                                  : Yes
Forced                                   : No
Mokssh (2014) 700MB 1CDRip DVDRip 1d66ed.png
Mokssh (2014) 700MB 1CDRip DVDRip 274c8b.png
Mokssh (2014) 700MB 1CDRip DVDRip 3c8bd9.png
Mokssh (2014) 700MB 1CDRip DVDRip 47214f.png
Mokssh (2014) 700MB 1CDRip DVDRip 5fcc07.png
Mokssh (2014) 700MB 1CDRip DVDRip 6ff235.png
Mokssh (2014) 700MB 1CDRip DVDRip 783d13.png
Mokssh (2014) 700MB 1CDRip DVDRip 8f5ff4.png
Mokssh (2014) 700MB 1CDRip DVDRip 98df73.png
Mokssh (2014) 700MB 1CDRip DVDRip 1069efb.png
Mokssh (2014) 700MB 1CDRip DVDRip 11b403d.png
Mokssh (2014) 700MB 1CDRip DVDRip 12d9efe.png
Mokssh (2014) 700MB 1CDRip DVDRip 1360934.png




SINGLE DIRECT FAST LINKS


كود:
http://terafile.co/6f6ed0325a13/Mokssh.2014.1CD.x264.DVDRIP-Team.Telly.Exclusive.mkv
كود:
http://rapidgator.net/file/f248a4f5993e114345505965db8e38e6/Mokssh.2014.1CD.x264.DVDRIP-Team.Telly.Exclusive.mkv.html
كود:
http://uploaded.net/file/84uze1z1/Mokssh.2014.1CD.x264.DVDRIP-Team.Telly.Exclusive.mkv

Mokssh (2014) - 700MB 1CDRip DVDRip x264 Hindi TT Exclusive 1cdrip 2014 700mb dvdrip exclusive hindi mokssh tt