Arundhati (2014) 700MB 1CDRip DVDRip 100074283_9b7edcd07e.jpg



كود:
General
Unique ID                                : 212050732756180551761588466570359282092 (0x9F877C4FEAC7CC9D961D5E1E6F1919AC)
Complete name                            : D:\Download Completed 1\ARUNDHATI.2014.1CD.x264.DVDRIP-Team.Telly.Exclusive.mkv
Format                                   : Matroska
Format version                           : Version 2
File size                                : 664 MiB
Duration                                 : 1h 56mn
Overall bit rate mode                    : Variable
Overall bit rate                         : 796 Kbps
Encoded date                             : UTC 2014-04-17 04:15:47
Writing application                      : mkvmerge v6.5.0 ('Isn't she lovely') built on Oct 20 2013 12:50:05
Writing library                          : libebml v1.3.0 + libmatroska v1.4.1

Video
ID                                       : 1
Format                                   : AVC
Format/Info                              : Advanced Video Codec
Format profile                           : High@L4.1
Format settings, CABAC                   : Yes
Format settings, ReFrames                : 4 frames
Codec ID                                 : V_MPEG4/ISO/AVC
Duration                                 : 1h 56mn
Bit rate                                 : 706 Kbps
Width                                    : 640 pixels
Height                                   : 272 pixels
Display aspect ratio                     : 2.35:1
Frame rate mode                          : Constant
Frame rate                               : 23.976 fps
Color space                              : YUV
Chroma subsampling                       : 4:2:0
Bit depth                                : 8 bits
Scan type                                : Progressive
Bits/(Pixel*Frame)                       : 0.169
Stream size                              : 578 MiB (87%)
Writing library                          : x264 core 138 r2358 9e941d1
Encoding settings                        : cabac=1 / ref=3 / deblock=1:0:0 / analyse=0x3:0x133 / me=umh / subme=7 / psy=1 / psy_rd=1.00:0.15 / mixed_ref=1 / me_range=16 / chroma_me=1 / trellis=1 / 8x8dct=1 / cqm=0 / deadzone=21,11 / fast_pskip=1 / chroma_qp_offset=-3 / threads=6 / lookahead_threads=1 / sliced_threads=0 / nr=0 / decimate=1 / interlaced=0 / bluray_compat=0 / constrained_intra=0 / bframes=3 / b_pyramid=2 / b_adapt=1 / b_bias=0 / direct=1 / weightb=1 / open_gop=0 / weightp=2 / keyint=240 / keyint_min=23 / scenecut=40 / intra_refresh=0 / rc_lookahead=40 / rc=2pass / mbtree=1 / bitrate=706 / ratetol=1.0 / qcomp=0.60 / qpmin=0 / qpmax=69 / qpstep=4 / cplxblur=20.0 / qblur=0.5 / vbv_maxrate=24000 / vbv_bufsize=24000 / nal_hrd=none / ip_ratio=1.40 / aq=1:1.00
Language                                 : English
Default                                  : Yes
Forced                                   : No

Audio
ID                                       : 2
Format                                   : MPEG Audio
Format version                           : Version 1
Format profile                           : Layer 3
Mode                                     : Joint stereo
Mode extension                           : MS Stereo
Codec ID                                 : A_MPEG/L3
Codec ID/Hint                            : MP3
Duration                                 : 1h 56mn
Bit rate mode                            : Variable
Bit rate                                 : 88.1 Kbps
Nominal bit rate                         : 96.0 Kbps
Channel count                            : 2 channels
Sampling rate                            : 32.0 KHz
Compression mode                         : Lossy
Stream size                              : 73.5 MiB (11%)
Writing library                          : LAME3.99r
Encoding settings                        : -m j -V 4 -q 2 -lowpass 15.1 --abr 96
Default                                  : Yes
Forced                                   : No
Arundhati (2014) 700MB 1CDRip DVDRip 1.png
Arundhati (2014) 700MB 1CDRip DVDRip 2.png
Arundhati (2014) 700MB 1CDRip DVDRip 3.png
Arundhati (2014) 700MB 1CDRip DVDRip 4.png
Arundhati (2014) 700MB 1CDRip DVDRip 5.png
Arundhati (2014) 700MB 1CDRip DVDRip 6.png
Arundhati (2014) 700MB 1CDRip DVDRip 7.png
Arundhati (2014) 700MB 1CDRip DVDRip 8.png
Arundhati (2014) 700MB 1CDRip DVDRip 9.png
Arundhati (2014) 700MB 1CDRip DVDRip 10.png
Arundhati (2014) 700MB 1CDRip DVDRip 11.png
Arundhati (2014) 700MB 1CDRip DVDRip 12.png
Arundhati (2014) 700MB 1CDRip DVDRip 13.png
Arundhati (2014) 700MB 1CDRip DVDRip 14.png
Arundhati (2014) 700MB 1CDRip DVDRip 15.png




SINGLE DIRECT FAST LINKS




كود:
http://terafile.co/f136d9587dd6/ARUNDHATI.2014.1CD.x264.DVDRIP-Team.Telly.Exclusive.mkv
كود:
http://rapidgator.net/file/80a6000e3e940da794dea6646edb8143/ARUNDHATI.2014.1CD.x264.DVDRIP-Team.Telly.Exclusive.mkv.html
كود:
http://uploaded.net/file/a5re3b0q/ARUNDHATI.2014.1CD.x264.DVDRIP-Team.Telly.Exclusive.mkv

Arundhati (2014) - 700MB 1CDRip DVDRip x264 Hindi TT Exclusive 1cdrip 2014 700mb arundhati dvdrip exclusive hindi tt