Shaadi Side Effects (2014) 720p fhev.png





كود:
Shaadi ke Side Effects (2014) 720p DVDRip HQ MSubs x264 AC3 HEET - [DUS]
--//// High End Encoding Team ////--
In Association With
Desi Unit Share



Source: - DVD9 @ TELLY
Complete name                            : Shaadi ke side effects (2014) 720p DVDRip HQ msubs x264 AC3  HEET - [DUS].mkv
Format                                   : Matroska
Format version                           : Version 2
File size                                : 2.19 GiB
Duration                                 : 2h 22mn
Overall bit rate mode                    : Variable
Overall bit rate                         : 2 210 Kbps
Encoded date                             : UTC 2014-04-03 04:02:02
Writing application                      : mkvmerge v6.5.0 ('Isn't she lovely') built on Oct 20 2013 12:50:05
Writing library                          : libebml v1.3.0 + libmatroska v1.4.1

Video
ID                                       : 1
Format                                   : AVC
Format/Info                              : Advanced Video Codec
Format profile                           : Main@L4.1
Format settings, CABAC                   : No
Format settings, ReFrames                : 3 frames
Codec ID                                 : V_MPEG4/ISO/AVC
Duration                                 : 2h 22mn
Bit rate mode                            : Variable
Bit rate                                 : 1 760 Kbps
Maximum bit rate                         : 40.0 Mbps
Width                                    : 1 280 pixels
Height                                   : 544 pixels
Display aspect ratio                     : 2.35:1
Frame rate mode                          : Constant
Frame rate                               : 23.976 fps
Color space                              : YUV
Chroma subsampling                       : 4:2:0
Bit depth                                : 8 bits
Scan type                                : Progressive
Bits/(Pixel*Frame)                       : 0.105
Stream size                              : 1.71 GiB (78%)
Writing library                          : x264 core 142 r2389 956c8d8
Encoding settings                        : cabac=0 / ref=4 / deblock=0:0:0 / analyse=0:0 / me=dia / subme=0 / psy=1 / psy_rd=1.00:0.00 / mixed_ref=0 / me_range=16 / chroma_me=1 / trellis=0 / 8x8dct=0 / cqm=0 / deadzone=21,11 / fast_pskip=1 / chroma_qp_offset=0 / threads=18 / lookahead_threads=3 / sliced_threads=0 / slices=4 / nr=0 / decimate=1 / interlaced=fake / bluray_compat=1 / constrained_intra=0 / bframes=3 / b_pyramid=1 / b_adapt=0 / b_bias=0 / direct=1 / weightb=0 / open_gop=1 / weightp=0 / keyint=24 / keyint_min=1 / scenecut=0 / intra_refresh=0 / rc_lookahead=0 / rc=2pass / mbtree=0 / bitrate=1760 / ratetol=1.0 / qcomp=0.60 / qpmin=1 / qpmax=69 / qpstep=4 / cplxblur=20.0 / qblur=0.5 / vbv_maxrate=40000 / vbv_bufsize=30000 / nal_hrd=vbr / filler=0 / ip_ratio=1.40 / pb_ratio=1.30 / aq=0
Language                                 : English
Default                                  : Yes
Forced                                   : No
Color primaries                          : BT.601 PAL
Transfer characteristics                 : BT.470 System B, BT.470 System G
Matrix coefficients                      : BT.601

Audio
ID                                       : 2
Format                                   : AC-3
Format/Info                              : Audio Coding 3
Mode extension                           : CM (complete main)
Format settings, Endianness              : Big
Codec ID                                 : A_AC3
Duration                                 : 2h 22mn
Bit rate mode                            : Constant
Bit rate                                 : 448 Kbps
Channel count                            : 6 channels
Channel positions                        : Front: L C R, Side: L R, LFE
Sampling rate                            : 48.0 KHz
Bit depth                                : 16 bits
Compression mode                         : Lossy
Delay relative to video                  : 16ms
Stream size                              : 456 MiB (20%)
Default                                  : Yes
Forced                                   : No





Shaadi Side Effects (2014) 720p j3u5.png
Shaadi Side Effects (2014) 720p dcwi.png
Shaadi Side Effects (2014) 720p e62a.png
Shaadi Side Effects (2014) 720p 4hel.png
Shaadi Side Effects (2014) 720p yqzq.png
Shaadi Side Effects (2014) 720p jzdg.png
Shaadi Side Effects (2014) 720p t51o.png
Shaadi Side Effects (2014) 720p hipc.png
Shaadi Side Effects (2014) 720p crh5.png
Shaadi Side Effects (2014) 720p t8jx.png




SINGLE DIRECT FAST LINKS

كود:
http://terafile.co/56858b5c98eb/Shaadi.ke.Side.Effects.2014.720p.DVDRip.HQ.MSubs.x264.AC3.HEET-DUS.mkv
كود:
http://uploaded.net/file/hptcals5/Shaadi.ke.Side.Effects.2014.720p.DVDRip.HQ.MSubs.x264.AC3.HEET-DUS.mkv
700MB LINKS

كود:
http://terafile.co/c76987f95878/Shaadi.ke.Side.Effects.2014.720p.DVDRip.HQ.MSubs.x264.AC3.HEET-DUS.mkv.001
http://terafile.co/53c149897040/Shaadi.ke.Side.Effects.2014.720p.DVDRip.HQ.MSubs.x264.AC3.HEET-DUS.mkv.002
http://terafile.co/94737a43a493/Shaadi.ke.Side.Effects.2014.720p.DVDRip.HQ.MSubs.x264.AC3.HEET-DUS.mkv.003
http://terafile.co/669724219978/Shaadi.ke.Side.Effects.2014.720p.DVDRip.HQ.MSubs.x264.AC3.HEET-DUS.mkv.004
http://terafile.co/368041416de9/Shaadi.ke.Side.Effects.2014.720p.DVDRip.HQ.MSubs.x264.AC3.HEET-DUS.sub
http://terafile.co/8c476c69d33c/Shaadi.ke.Side.Effects.2014.720p.DVDRip.HQ.MSubs.x264.AC3.HEET-DUS.idx
كود:
http://rapidgator.net/file/ca339bb658a40cabe5c4b053d30d92fa/Shaadi.ke.Side.Effects.2014.720p.DVDRip.HQ.MSubs.x264.AC3.HEET-DUS.mkv.001.html
http://rapidgator.net/file/de71c97366179affd1938c57dfe7f2dd/Shaadi.ke.Side.Effects.2014.720p.DVDRip.HQ.MSubs.x264.AC3.HEET-DUS.mkv.002.html
http://rapidgator.net/file/9d99a99e301b15b1027c3b7af6a30c66/Shaadi.ke.Side.Effects.2014.720p.DVDRip.HQ.MSubs.x264.AC3.HEET-DUS.mkv.003.html
http://rapidgator.net/file/124b358288004fd5645a027d9245d06e/Shaadi.ke.Side.Effects.2014.720p.DVDRip.HQ.MSubs.x264.AC3.HEET-DUS.mkv.004.html
http://rapidgator.net/file/e9912dee4fbfb0178db9e68c4aa9b888/Shaadi.ke.Side.Effects.2014.720p.DVDRip.HQ.MSubs.x264.AC3.HEET-DUS.sub.html
http://rapidgator.net/file/d6a7f32537a60854d1ab5a78b46a7c32/Shaadi.ke.Side.Effects.2014.720p.DVDRip.HQ.MSubs.x264.AC3.HEET-DUS.idx.html

كود:
http://uploaded.net/file/p5h0xtsj/Shaadi.ke.Side.Effects.2014.720p.DVDRip.HQ.MSubs.x264.AC3.HEET-DUS.mkv.001
http://uploaded.net/file/7eald4n1/Shaadi.ke.Side.Effects.2014.720p.DVDRip.HQ.MSubs.x264.AC3.HEET-DUS.mkv.002
http://uploaded.net/file/7727gnzv/Shaadi.ke.Side.Effects.2014.720p.DVDRip.HQ.MSubs.x264.AC3.HEET-DUS.mkv.003
http://uploaded.net/file/eg9m7jv3/Shaadi.ke.Side.Effects.2014.720p.DVDRip.HQ.MSubs.x264.AC3.HEET-DUS.mkv.004
http://uploaded.net/file/1v22zgb1/Shaadi.ke.Side.Effects.2014.720p.DVDRip.HQ.MSubs.x264.AC3.HEET-DUS.sub
http://uploaded.net/file/ufnsvx9t/Shaadi.ke.Side.Effects.2014.720p.DVDRip.HQ.MSubs.x264.AC3.HEET-DUS.idx

Shaadi ke Side Effects (2014) - 720p HQ-DVDRip MSubs x264 AC3 FDUSD 2014 ac3 dus effects hqdvdrip msubs shaadi side