Panivizhum Malarvanam (2014) 700MB 1CDRip 01c6b3e7-7a3f-4058-b21a-403736ef667f_original_image_500_500.jpg






كود:
General
Complete name                            : D:\Download Completed 1\Panivizhum.Malarvanam.2014.DVDScr.XviD.1CDRip.700MB.Tamil-Team.TMR.avi
Format                                   : AVI
Format/Info                              : Audio Video Interleave
File size                                : 714 MiB
Duration                                 : 2h 5mn
Overall bit rate                         : 793 Kbps

Video
ID                                       : 0
Format                                   : MPEG-4 Visual
Format profile                           : Simple@L3
Format settings, BVOP                    : No
Format settings, QPel                    : No
Format settings, GMC                     : No warppoints
Format settings, Matrix                  : Default (H.263)
Codec ID                                 : XVID
Codec ID/Hint                            : XviD
Duration                                 : 2h 5mn
Source duration                          : 2h 5mn
Bit rate                                 : 620 Kbps
Width                                    : 640 pixels
Height                                   : 272 pixels
Display aspect ratio                     : 2.35:1
Frame rate                               : 29.970 fps
Color space                              : YUV
Chroma subsampling                       : 4:2:0
Bit depth                                : 8 bits
Scan type                                : Progressive
Compression mode                         : Lossy
Bits/(Pixel*Frame)                       : 0.119
Stream size                              : 558 MiB (78%)
Writing library                          : XviD 1.1.2 (UTC 2006-11-01)

Audio
ID                                       : 1
Format                                   : MPEG Audio
Format version                           : Version 1
Format profile                           : Layer 3
Mode                                     : Joint stereo
Mode extension                           : MS Stereo
Codec ID                                 : 55
Codec ID/Hint                            : MP3
Duration                                 : 2h 5mn
Bit rate mode                            : Constant
Bit rate                                 : 160 Kbps
Channel count                            : 2 channels
Sampling rate                            : 44.1 KHz
Compression mode                         : Lossy
Stream size                              : 144 MiB (20%)
Alignment                                : Split accross interleaves
Interleave, duration                     : 26 ms (0.78 video frame)


Panivizhum Malarvanam (2014) 700MB 1CDRip fl8dUf5.png
Panivizhum Malarvanam (2014) 700MB 1CDRip ZwtRu9Q.png
Panivizhum Malarvanam (2014) 700MB 1CDRip pabcB2q.png
Panivizhum Malarvanam (2014) 700MB 1CDRip kE3Rlq9.png
Panivizhum Malarvanam (2014) 700MB 1CDRip t2mWUPR.png



SINGLE DIRECT FAST LINKS



كود:
http://rapidgator.net/file/35a9eeb652a23d0f933dc4a498946743/Panivizhum.Malarvanam.2014.DVDScr.XviD.1CDRip.700MB.Tamil-Team.TMR.avi.html
كود:
http://terafile.co/960c52135612/Panivizhum.Malarvanam.2014.DVDScr.XviD.1CDRip.700MB.Tamil-Team.TMR.avi
كود:
http://uploaded.net/file/o135c3w0/Panivizhum.Malarvanam.2014.DVDScr.XviD.1CDRip.700MB.Tamil-Team.TMR.avi

Panivizhum Malarvanam (2014) - 700MB 1CDRip DVDSCR XviD Team TMR 1cdrip 2014 700mb dvdscr malarvanam panivizhum team tmr xvid