Race Gurram (2014) 1CDRip HDCAM OOCYxzz.jpg





كود:
General
Format                           : AVI
Format/Info                      : Audio Video Interleave
File size                        : 704 MiB
Duration                         : 2h 14mn
Overall bit rate                 : 731 Kbps

Video
ID                               : 0
Format                           : MPEG-4 Visual
Format profile                   : Simple@L3
Format settings, BVOP            : No
Format settings, QPel            : No
Format settings, GMC             : No warppoints
Format settings, Matrix          : Default (H.263)
Codec ID                         : XVID
Codec ID/Hint                    : XviD
Duration                         : 2h 14mn
Bit rate                         : 638 Kbps
Width                            : 608 pixels
Height                           : 256 pixels
Display aspect ratio             : 2.35:1
Frame rate                       : 29.970 fps
Color space                      : YUV
Chroma subsampling               : 4:2:0
Bit depth                        : 8 bits
Scan type                        : Progressive
Bits/(Pixel*Frame)               : 0.137
Stream size                      : 614 MiB (87%)
Writing library                  : XviD 1.1.2 (UTC 2006-11-01)

Audio
ID                               : 1
Format                           : MPEG Audio
Format version                   : Version 1
Format profile                   : Layer 3
Mode                             : Joint stereo
Mode extension                   : MS Stereo
Codec ID                         : 55
Codec ID/Hint                    : MP3
Duration                         : 2h 14mn
Bit rate mode                    : Constant
Bit rate                         : 80.0 Kbps
Channel(s)                       : 2 channels
Sampling rate                    : 44.1 KHz
Stream size                      : 77.0 MiB (11%)
Alignment                        : Split accross interleaves
Interleave, duration             : 26 ms (0.78 video frame)

Race Gurram (2014) 1CDRip HDCAM hOdPxPq.png
Race Gurram (2014) 1CDRip HDCAM REGia5z.png
Race Gurram (2014) 1CDRip HDCAM dY9qYJn.png
Race Gurram (2014) 1CDRip HDCAM hrHbsaD.png
Race Gurram (2014) 1CDRip HDCAM mBI9Gb2.png
Race Gurram (2014) 1CDRip HDCAM eWi3pCK.png


SINGLE DIRECT FAST LINKS




كود:
http://terafile.co/895c0928934b/Race.Gurram.2014.Telugu.HDCAM.Xvid-TTT.avi
كود:
http://rapidgator.net/file/4010d63a1fc50eddc474141bddb6cd65/Race.Gurram.2014.Telugu.HDCAM.Xvid-TTT.avi.html
كود:
http://uploaded.net/file/avju5t11/Race.Gurram.2014.Telugu.HDCAM.Xvid-TTT.avi

Race Gurram (2014) - 1CDRip HDCAM XviD Telugu TTT 1cdrip 2014 gurram hdcam race telugu ttt xvid