Thegidi (2014) 1.37GB 1/3DVDRip XviD WGGn5io.jpg




كود:
General
Format                                   : AVI
Format/Info                              : Audio Video Interleave
File size                                : 1.35 GiB
Duration                                 : 1h 55mn
Overall bit rate                         : 1 672 Kbps

Video
ID                                       : 0
Format                                   : MPEG-4 Visual
Format profile                           : Simple@L3
Format settings, BVOP                    : No
Format settings, QPel                    : No
Format settings, GMC                     : No warppoints
Format settings, Matrix                  : Default (H.263)
Codec ID                                 : XVID
Codec ID/Hint                            : XviD
Duration                                 : 1h 55mn
Source duration                          : 1h 55mn
Bit rate                                 : 1 213 Kbps
Width                                    : 672 pixels
Height                                   : 272 pixels
Display aspect ratio                     : 2.471
Frame rate                               : 25.000 fps
Color space                              : YUV
Chroma subsampling                       : 4:2:0
Bit depth                                : 8 bits
Scan type                                : Progressive
Compression mode                         : Lossy
Bits/(Pixel*Frame)                       : 0.265
Stream size                              : 1 005 MiB (73%)
Writing library                          : XviD 1.1.2 (UTC 2006-11-01)

Audio
ID                                       : 1
Format                                   : AC-3
Format/Info                              : Audio Coding 3
Mode extension                           : CM (complete main)
Format settings, Endianness              : Big
Codec ID                                 : 2000
Duration                                 : 1h 55mn
Bit rate mode                            : Constant
Bit rate                                 : 448 Kbps
Channel count                            : 6 channels
Channel positions                        : Front: L C R, Side: L R, LFE
Sampling rate                            : 48.0 KHz
Bit depth                                : 16 bits
Compression mode                         : Lossy
Stream size                              : 371 MiB (27%)
Alignment                                : Aligned on interleaves
Interleave, duration                     : 32 ms (0.80 video frame)

Thegidi (2014) 1.37GB 1/3DVDRip XviD 9pn48kY.png
Thegidi (2014) 1.37GB 1/3DVDRip XviD tzTKQNy.png
Thegidi (2014) 1.37GB 1/3DVDRip XviD gbZA709.png
Thegidi (2014) 1.37GB 1/3DVDRip XviD aITNTrE.png
Thegidi (2014) 1.37GB 1/3DVDRip XviD JokYWac.png
Thegidi (2014) 1.37GB 1/3DVDRip XviD r80OebL.png
Thegidi (2014) 1.37GB 1/3DVDRip XviD 116vghS.png
Thegidi (2014) 1.37GB 1/3DVDRip XviD P4g5TMJ.png
Thegidi (2014) 1.37GB 1/3DVDRip XviD xogV887.png






SINGLE DIRECT FAST LINKS

كود:
http://terafile.co/412683727700/Thegidi.2014.MSK.DVDRIP.AC3.Xvid.1.36Gb.5.1.Audio.E.Subs-TTT.avi
http://terafile.co/b61a5f811379/Thegidi.2014.MSK.DVDRIP.AC3.Xvid.1.36Gb.5.1.Audio.E.Subs-TTT.idx
http://terafile.co/a29468166971/Thegidi.2014.MSK.DVDRIP.AC3.Xvid.1.36Gb.5.1.Audio.E.Subs-TTT.sub
كود:
http://rapidgator.net/file/0b09a8610771409656f7ddceb74bd28f/Thegidi.2014.MSK.DVDRIP.AC3.Xvid.1.36Gb.5.1.Audio.E.Subs-TTT.avi.html
http://rapidgator.net/file/f43bb5074c74e90482149258f32ddcda/Thegidi.2014.MSK.DVDRIP.AC3.Xvid.1.36Gb.5.1.Audio.E.Subs-TTT.idx.html
http://rapidgator.net/file/83ea5052bcd9a567fe76734a5d31c731/Thegidi.2014.MSK.DVDRIP.AC3.Xvid.1.36Gb.5.1.Audio.E.Subs-TTT.sub.html

كود:
http://uploaded.net/file/i0gx1vyr/Thegidi.2014.MSK.DVDRIP.AC3.Xvid.1.36Gb.5.1.Audio.E.Subs-TTT.avi
http://uploaded.net/file/3enbb6lw/Thegidi.2014.MSK.DVDRIP.AC3.Xvid.1.36Gb.5.1.Audio.E.Subs-TTT.idx
http://uploaded.net/file/lsp772ap/Thegidi.2014.MSK.DVDRIP.AC3.Xvid.1.36Gb.5.1.Audio.E.Subs-TTT.sub

Thegidi (2014) - MSK 1>37GB 1L3DVDRip XviD AC3 5>1 ESub's TTT 1 or 3dvdrip 137gb 2014 51 ac3 esub msk thegidi ttt xvid