Thegidi (2014) 700MB 1CDRip DVDRip UxJa8gJ.jpg





كود:
General
Format                           : AVI
Format/Info                      : Audio Video Interleave
File size                        : 703 MiB
Duration                         : 1h 55mn
Overall bit rate                 : 848 Kbps

Video
ID                               : 0
Format                           : MPEG-4 Visual
Format profile                   : Simple@L3
Format settings, BVOP            : No
Format settings, QPel            : No
Format settings, GMC             : No warppoints
Format settings, Matrix          : Default (H.263)
Codec ID                         : XVID
Codec ID/Hint                    : XviD
Duration                         : 1h 55mn
Bit rate                         : 755 Kbps
Width                            : 624 pixels
Height                           : 272 pixels
Display aspect ratio             : 2.25:1
Frame rate                       : 25.000 fps
Color space                      : YUV
Chroma subsampling               : 4:2:0
Bit depth                        : 8 bits
Scan type                        : Progressive
Bits/(Pixel*Frame)               : 0.178
Stream size                      : 625 MiB (89%)
Writing library                  : XviD 1.1.2 (UTC 2006-11-01)

Audio
ID                               : 1
Format                           : MPEG Audio
Format version                   : Version 1
Format profile                   : Layer 3
Mode                             : Joint stereo
Mode extension                   : MS Stereo
Codec ID                         : 55
Codec ID/Hint                    : MP3
Duration                         : 1h 55mn
Bit rate mode                    : Constant
Bit rate                         : 80.0 Kbps
Channel(s)                       : 2 channels
Sampling rate                    : 48.0 KHz
Stream size                      : 66.3 MiB (9%)
Alignment                        : Split accross interleaves
Interleave, duration             : 24 ms (0.60 video frame)


Thegidi (2014) 700MB 1CDRip DVDRip ntltGJv.png
Thegidi (2014) 700MB 1CDRip DVDRip 5yWYuVd.png
Thegidi (2014) 700MB 1CDRip DVDRip kcETkmp.png
Thegidi (2014) 700MB 1CDRip DVDRip y06VNYq.png
Thegidi (2014) 700MB 1CDRip DVDRip aQNH6R0.png
Thegidi (2014) 700MB 1CDRip DVDRip kQX6XAb.png
Thegidi (2014) 700MB 1CDRip DVDRip 2wSGW9V.png
Thegidi (2014) 700MB 1CDRip DVDRip EKIOnpa.png


SINGLE DIRECT FAST LINKS

كود:
http://terafile.co/15186b011147/Thegidi.2014.MSK.DVDRIP.Xvid.700Mb.E.Subs-TTT.avi
http://terafile.co/563563474ede/Thegidi.2014.MSK.DVDRIP.Xvid.700Mb.E.Subs-TTT.idx
http://terafile.co/6867416711cd/Thegidi.2014.MSK.DVDRIP.Xvid.700Mb.E.Subs-TTT.sub

كود:
http://rapidgator.net/file/7a011575e600c660c1f3395f2492d60c/Thegidi.2014.MSK.DVDRIP.Xvid.700Mb.E.Subs-TTT.avi.html
http://rapidgator.net/file/21caea73e5940a816b95dd78e7c2839f/Thegidi.2014.MSK.DVDRIP.Xvid.700Mb.E.Subs-TTT.idx.html
http://rapidgator.net/file/68fb6de58facb32314707b953e69da28/Thegidi.2014.MSK.DVDRIP.Xvid.700Mb.E.Subs-TTT.sub.html

كود:
http://uploaded.net/file/g7a76usu/Thegidi.2014.MSK.DVDRIP.Xvid.700Mb.E.Subs-TTT.avi
http://uploaded.net/file/rdqdza4y/Thegidi.2014.MSK.DVDRIP.Xvid.700Mb.E.Subs-TTT.idx
http://uploaded.net/file/v8rdi0wo/Thegidi.2014.MSK.DVDRIP.Xvid.700Mb.E.Subs-TTT.sub

Thegidi (2014) - MSK 700MB 1CDRip DVDRip XviD ESub's TTT 1cdrip 2014 700mb dvdrip esub msk thegidi ttt xvid