Hobbit Desolation Smaug (2013) BluRay X3sN5jL.png





كود:
General
Unique ID                                : 182806464039615674223651922170243727609 (0x89873E8B3D9E51C4BFCF88CA92F040F9)
Complete name                            : D:\Torrent Completed\The.Hobbit.The.Desolation.Of.Smaug.2013.720p.BluRay.AC3.Hindi.x264-Invincible\The.Hobbit.The.Desolation.Of.Smaug.2013.720p.BluRay.AC3.Hindi.x264-Invincible.mkv
Format                                   : Matroska
Format version                           : Version 4 / Version 2
File size                                : 1.35 GiB
Duration                                 : 2h 34mn
Overall bit rate                         : 1 245 Kbps
Movie name                               : The Hobbit The Desolation Of Smaug 2013 720p BluRay AC3 Hindi x264~Invincible
Encoded date                             : UTC 2014-04-12 03:06:56
Writing application                      : mkvmerge v6.6.0 ('The Edge Of The In Between') built on Dec  1 2013 17:55:00
Writing library                          : libebml v1.3.0 + libmatroska v1.4.1

Video
ID                                       : 1
Format                                   : AVC
Format/Info                              : Advanced Video Codec
Format profile                           : High@L4.1
Format settings, CABAC                   : Yes
Format settings, ReFrames                : 4 frames
Codec ID                                 : V_MPEG4/ISO/AVC
Duration                                 : 2h 34mn
Bit rate                                 : 763 Kbps
Width                                    : 1 280 pixels
Height                                   : 534 pixels
Display aspect ratio                     : 2.40:1
Frame rate mode                          : Constant
Frame rate                               : 25.000 fps
Original frame rate                      : 23.976 fps
Color space                              : YUV
Chroma subsampling                       : 4:2:0
Bit depth                                : 8 bits
Scan type                                : Progressive
Bits/(Pixel*Frame)                       : 0.045
Stream size                              : 855 MiB (62%)
Writing library                          : x264 core 135 r2 f0c1c53
Encoding settings                        : cabac=1 / ref=4 / deblock=1:-1:-1 / analyse=0x3:0x133 / me=umh / subme=9 / psy=1 / psy_rd=1.00:0.15 / mixed_ref=1 / me_range=24 / chroma_me=1 / trellis=2 / 8x8dct=1 / cqm=0 / deadzone=21,11 / fast_pskip=0 / chroma_qp_offset=-3 / threads=36 / lookahead_threads=3 / sliced_threads=0 / nr=0 / decimate=1 / interlaced=0 / bluray_compat=0 / constrained_intra=0 / bframes=3 / b_pyramid=2 / b_adapt=2 / b_bias=0 / direct=3 / weightb=1 / open_gop=0 / weightp=2 / keyint=250 / keyint_min=23 / scenecut=40 / intra_refresh=0 / rc_lookahead=60 / rc=2pass / mbtree=1 / bitrate=763 / ratetol=1.0 / qcomp=0.60 / qpmin=0 / qpmax=69 / qpstep=4 / cplxblur=20.0 / qblur=0.5 / vbv_maxrate=31250 / vbv_bufsize=31250 / nal_hrd=none / ip_ratio=1.40 / aq=1:1.00
Default                                  : Yes
Forced                                   : No
Color primaries                          : BT.709
Matrix coefficients                      : BT.709

Audio
ID                                       : 2
Format                                   : AC-3
Format/Info                              : Audio Coding 3
Mode extension                           : CM (complete main)
Format settings, Endianness              : Big
Codec ID                                 : A_AC3
Duration                                 : 2h 34mn
Bit rate mode                            : Constant
Bit rate                                 : 448 Kbps
Channel count                            : 6 channels
Channel positions                        : Front: L C R, Side: L R, LFE
Sampling rate                            : 48.0 KHz
Bit depth                                : 16 bits
Compression mode                         : Lossy
Stream size                              : 496 MiB (36%)
Title                                    : ~Invincible
Default                                  : Yes
Forced                                   : No






Hobbit Desolation Smaug (2013) BluRay aJ6pOeY.jpg
Hobbit Desolation Smaug (2013) BluRay hRlPgbw.jpg
Hobbit Desolation Smaug (2013) BluRay TuhHe8U.jpg
Hobbit Desolation Smaug (2013) BluRay Kj10OmK.jpg
Hobbit Desolation Smaug (2013) BluRay iSTb4no.jpg
Hobbit Desolation Smaug (2013) BluRay RefG2YG.jpg

Hindi Audio ORIGINAL

SINGLE DIRECT FAST LINKS


كود:
http://terafile.co/5646c055382d/The.Hobbit.The.Desolation.Of.Smaug.2013.720p.BluRay.AC3.Hindi.x264-Invincible.mkv
كود:
http://rapidgator.net/file/3840841ac24c6b4ab3a0c08c148a3b57/The.Hobbit.The.Desolation.Of.Smaug.2013.720p.BluRay.AC3.Hindi.x264-Invincible.mkv.html
كود:
http://uploaded.net/file/1tcc5gru/The.Hobbit.The.Desolation.Of.Smaug.2013.720p.BluRay.AC3.Hindi.x264-Invincible.mkv

The Hobbit Desolation Of Smaug (2013) - BluRay 720p AC3 Hindi x264-HDDR 2013 ac3 bluray desolation hindi hobbit smaug x264hddr