Naan Sigappu Manithan (2014) 700MB Jxz_Tx_Dc.jpg





كود:
General
Format                           : AVI
Format/Info                      : Audio Video Interleave
File size                        : 705 MiB
Duration                         : 2h 28mn
Overall bit rate                 : 663 Kbps


Video
ID                               : 0
Format                           : MPEG-4 Visual
Format profile                   : Simple@L3
Format settings, BVOP            : No
Format settings, QPel            : No
Format settings, GMC             : No warppoints
Format settings, Matrix          : Default (H.263)
Codec ID                         : XVID
Codec ID/Hint                    : XviD
Duration                         : 2h 28mn
Bit rate                         : 570 Kbps
Width                            : 624 pixels
Height                           : 272 pixels
Display aspect ratio             : 2.25:1
Frame rate                       : 29.970 fps
Color space                      : YUV
Chroma subsampling               : 4:2:0
Bit depth                        : 8 bits
Scan type                        : Progressive
Bits/(Pixel*Frame)               : 0.112
Stream size                      : 606 MiB (86%)
Writing library                  : XviD 1.1.2 (UTC 2006-11-01)

Audio
ID                               : 1
Format                           : MPEG Audio
Format version                   : Version 1
Format profile                   : Layer 3
Mode                             : Joint stereo
Mode extension                   : MS Stereo
Codec ID                         : 55
Codec ID/Hint                    : MP3
Duration                         : 2h 28mn
Bit rate mode                    : Constant
Bit rate                         : 80.0 Kbps
Channel(s)                       : 2 channels
Sampling rate                    : 44.1 KHz
Stream size                      : 85.1 MiB (12%)
Alignment                        : Split accross interleaves
Interleave, duration             : 26 ms (0.78 video frame)

Naan Sigappu Manithan (2014) 700MB RSKD9o1.png
Naan Sigappu Manithan (2014) 700MB EKchRaL.png
Naan Sigappu Manithan (2014) 700MB nCvP2Dc.png
Naan Sigappu Manithan (2014) 700MB JO06HAF.png
Naan Sigappu Manithan (2014) 700MB IAJRcjb.png
Naan Sigappu Manithan (2014) 700MB hKEctzQ.png



SINGLE DIRECT FAST LINKS

كود:
http://terafile.co/33f053471236/Naan.Sigappu.Manithan.2014.Xvid.700Mb-TTT.avi
كود:
http://rapidgator.net/file/9f7821002e01dad969fd8b035557610e/Naan.Sigappu.Manithan.2014.Xvid.700Mb-TTT.avi.html
كود:
http://uploaded.net/file/pndlwqix/Naan.Sigappu.Manithan.2014.Xvid.700Mb-TTT.avi

Naan Sigappu Manithan (2014) - 700MB 1CDRip TCRip XviD TTT 1cdrip 2014 700mb manithan naan sigappu tcrip ttt xvid