Gang Ghosts (2014) 1.45GB 1/3WEB-HDRip gang-of-ghosts-first-look-1.jpg





كود:
General
Unique ID                                : 221582303802193590142955169645739264285 (0xA6B3330C2239912D8D12672C49BE491D)
Complete name                            : D:\Download Completed 1\Gang.of.Ghosts.2014.1-3.CD.x264.WEBRIP.ESUBS.AC3.5.1-Team.Telly.Exclusive.mkv
Format                                   : Matroska
Format version                           : Version 2
File size                                : 1.52 GiB
Duration                                 : 1h 58mn
Overall bit rate                         : 1 836 Kbps
Encoded date                             : UTC 2014-04-11 22:47:21
Writing application                      : mkvmerge v6.5.0 ('Isn't she lovely') built on Oct 20 2013 12:50:05
Writing library                          : libebml v1.3.0 + libmatroska v1.4.1

Video
ID                                       : 1
Format                                   : AVC
Format/Info                              : Advanced Video Codec
Format profile                           : High@L5.2
Format settings, CABAC                   : Yes
Format settings, ReFrames                : 4 frames
Codec ID                                 : V_MPEG4/ISO/AVC
Duration                                 : 1h 58mn
Bit rate                                 : 1 452 Kbps
Width                                    : 640 pixels
Height                                   : 272 pixels
Display aspect ratio                     : 2.35:1
Frame rate mode                          : Constant
Frame rate                               : 24.000 fps
Color space                              : YUV
Chroma subsampling                       : 4:2:0
Bit depth                                : 8 bits
Scan type                                : Progressive
Bits/(Pixel*Frame)                       : 0.348
Stream size                              : 1.17 GiB (77%)
Writing library                          : x264 core 138 r2358 9e941d1
Encoding settings                        : cabac=1 / ref=3 / deblock=1:0:0 / analyse=0x3:0x113 / me=umh / subme=7 / psy=1 / psy_rd=1.00:0.15 / mixed_ref=1 / me_range=16 / chroma_me=1 / trellis=1 / 8x8dct=1 / cqm=0 / deadzone=21,11 / fast_pskip=1 / chroma_qp_offset=-3 / threads=12 / lookahead_threads=2 / sliced_threads=0 / nr=0 / decimate=1 / interlaced=0 / bluray_compat=0 / constrained_intra=0 / bframes=3 / b_pyramid=2 / b_adapt=1 / b_bias=0 / direct=1 / weightb=1 / open_gop=0 / weightp=2 / keyint=240 / keyint_min=24 / scenecut=40 / intra_refresh=0 / rc_lookahead=40 / rc=2pass / mbtree=1 / bitrate=1452 / ratetol=1.0 / qcomp=0.60 / qpmin=0 / qpmax=69 / qpstep=4 / cplxblur=20.0 / qblur=0.5 / vbv_maxrate=300000 / vbv_bufsize=300000 / nal_hrd=none / ip_ratio=1.40 / aq=1:1.00
Language                                 : English
Default                                  : Yes
Forced                                   : No

Audio
ID                                       : 2
Format                                   : AC-3
Format/Info                              : Audio Coding 3
Mode extension                           : CM (complete main)
Format settings, Endianness              : Big
Codec ID                                 : A_AC3
Duration                                 : 1h 58mn
Bit rate mode                            : Constant
Bit rate                                 : 384 Kbps
Channel count                            : 2 channels
Channel positions                        : Front: L R
Sampling rate                            : 44.1 KHz
Bit depth                                : 16 bits
Compression mode                         : Lossy
Stream size                              : 325 MiB (21%)
Default                                  : Yes
Forced                                   : No


Gang Ghosts (2014) 1.45GB 1/3WEB-HDRip ye5i.png
Gang Ghosts (2014) 1.45GB 1/3WEB-HDRip 8s40.png
Gang Ghosts (2014) 1.45GB 1/3WEB-HDRip rphx.png
Gang Ghosts (2014) 1.45GB 1/3WEB-HDRip f787.png
Gang Ghosts (2014) 1.45GB 1/3WEB-HDRip ymmf.png
Gang Ghosts (2014) 1.45GB 1/3WEB-HDRip pkit.png
Gang Ghosts (2014) 1.45GB 1/3WEB-HDRip lpdd.png
Gang Ghosts (2014) 1.45GB 1/3WEB-HDRip ol6k.png
Gang Ghosts (2014) 1.45GB 1/3WEB-HDRip tq4w.png
Gang Ghosts (2014) 1.45GB 1/3WEB-HDRip bgnb.png
Gang Ghosts (2014) 1.45GB 1/3WEB-HDRip k05l.png




SINGLE DIRECT FAST LINKS

كود:
http://terafile.co/c27d3e288830/Gang.of.Ghosts.2014.1-3.CD.x264.WEBRIP.ESUBS.AC3.5.1-Team.Telly.Exclusive.mkv
http://terafile.co/618094109ea0/Gang.of.Ghosts.2014.1-3.CD.x264.WEBRIP.ESUBS.AC3.5.1-Team.Telly.Exclusive.srt

كود:
http://rapidgator.net/file/44b7add843cca9e9af385aba1acb5be0/Gang.of.Ghosts.2014.1-3.CD.x264.WEBRIP.ESUBS.AC3.5.1-Team.Telly.Exclusive.mkv.html
http://rapidgator.net/file/8e770937079f0ceb8954f59c3d7c46dd/Gang.of.Ghosts.2014.1-3.CD.x264.WEBRIP.ESUBS.AC3.5.1-Team.Telly.Exclusive.srt.html
كود:
http://uploaded.net/file/ns8mndlx/Gang.of.Ghosts.2014.1-3.CD.x264.WEBRIP.ESUBS.AC3.5.1-Team.Telly.Exclusive.mkv
http://uploaded.net/file/7asa7czp/Gang.of.Ghosts.2014.1-3.CD.x264.WEBRIP.ESUBS.AC3.5.1-Team.Telly.Exclusive.srt



Gang of Ghosts (2014) - 1>45GB 1L3WEB-HDRip x264 Esubs AC3 5>1 TT Exclusive 1 or 3webhdrip 145gb 2014 51 ac3 esubs exclusive gang ghosts tt