Gang Ghosts (2014) WEB=HDRip x264 gang-of-ghosts-first-look-1.jpg





كود:
Format : Matroska
Format version : Version 2
File size : 751 MiB
Duration : 2h 12mn
Overall bit rate : 794 Kbps
Encoded date : UTC 2014-04-11 18:04:30
Writing application : mkvmerge v6.5.0 ('Isn't she lovely') built on Oct 20 2013 12:50:05
Writing library : libebml v1.3.0 + libmatroska v1.4.1

Video
ID : 1
Format : AVC
Format/Info : Advanced Video Codec
Format profile : High@L5.2
Format settings, CABAC : Yes
Format settings, ReFrames : 4 frames
Codec ID : V_MPEG4/ISO/AVC
Duration : 2h 12mn
Bit rate : 650 Kbps
Nominal bit rate : 744 Kbps
Width : 640 pixels
Height : 272 pixels
Display aspect ratio : 2.35:1
Frame rate mode : Constant
Frame rate : 24.000 fps
Color space : YUV
Chroma subsampling : 4:2:0
Bit depth : 8 bits
Scan type : Progressive
Bits/(Pixel*Frame) : 0.156
Stream size : 615 MiB (82%)
Writing library : x264 core 138 r2358 9e941d1
Encoding settings : cabac=1 / ref=3 / deblock=1:0:0 / analyse=0x3:0x113 / me=umh / subme=7 / psy=1 / psy_rd=1.00:0.15 / mixed_ref=1 / me_range=16 / chroma_me=1 / trellis=1 / 8x8dct=1 / cqm=0 / deadzone=21,11 / fast_pskip=1 / chroma_qp_offset=-3 / threads=12 / lookahead_threads=2 / sliced_threads=0 / nr=0 / decimate=1 / interlaced=0 / bluray_compat=0 / constrained_intra=0 / bframes=3 / b_pyramid=2 / b_adapt=1 / b_bias=0 / direct=1 / weightb=1 / open_gop=0 / weightp=2 / keyint=240 / keyint_min=24 / scenecut=40 / intra_refresh=0 / rc_lookahead=40 / rc=2pass / mbtree=1 / bitrate=744 / ratetol=1.0 / qcomp=0.60 / qpmin=0 / qpmax=69 / qpstep=4 / cplxblur=20.0 / qblur=0.5 / vbv_maxrate=300000 / vbv_bufsize=300000 / nal_hrd=none / ip_ratio=1.40 / aq=1:1.00
Language : English
Default : Yes
Forced : No

Audio
ID : 2
Format : MPEG Audio
Format version : Version 1
Format profile : Layer 2
Codec ID : A_MPEG/L2
Codec ID/Hint : MP2
Duration : 2h 12mn
Bit rate mode : Constant
Bit rate : 128 Kbps
Channel(s) : 2 channels
Sampling rate : 48.0 KHz
Compression mode : Lossy
Stream size : 121 MiB (16%)
Default : Yes
Forced : No


Gang Ghosts (2014) WEB=HDRip x264 hw3n.png
Gang Ghosts (2014) WEB=HDRip x264 d230.png
Gang Ghosts (2014) WEB=HDRip x264 6qzp.png
Gang Ghosts (2014) WEB=HDRip x264 gudf.png
Gang Ghosts (2014) WEB=HDRip x264 uxy0.png
Gang Ghosts (2014) WEB=HDRip x264 gkjj.png
Gang Ghosts (2014) WEB=HDRip x264 s4cl.png
Gang Ghosts (2014) WEB=HDRip x264 g91q.png
Gang Ghosts (2014) WEB=HDRip x264 ybge.png
Gang Ghosts (2014) WEB=HDRip x264 wjgh.png
Gang Ghosts (2014) WEB=HDRip x264 hdeh.png
Gang Ghosts (2014) WEB=HDRip x264 x9l2.png
Gang Ghosts (2014) WEB=HDRip x264 8l3c.png
Gang Ghosts (2014) WEB=HDRip x264 y67v.png
Gang Ghosts (2014) WEB=HDRip x264 yx4r.png
Gang Ghosts (2014) WEB=HDRip x264 kmx9.png
Gang Ghosts (2014) WEB=HDRip x264 xyny.png





SINGLE LINKS


كود:
http://rapidgator.net/file/218eababfd9c64fe0cefce97bbd5a401/Gang.of.GhostS.2014.1CD.x264.WEB_RIP.ESUBS-Team.Telly.Exclusive.mkv.html
http://rapidgator.net/file/a0b0d0e3f0faef54e4dc05a0618baf2a/Gang.of.GhostS.2014.1CD.x264.WEB_RIP.ESUBS-Team.Telly.Exclusive.srt.html
كود:
http://terafile.co/4a1c112123e0/Gang.of.GhostS.2014.1CD.x264.WEB_RIP.ESUBS-Team.Telly.Exclusive.mkv
http://terafile.co/0b30a5825735/Gang.of.GhostS.2014.1CD.x264.WEB_RIP.ESUBS-Team.Telly.Exclusive.srt
كود:
http://uploaded.net/file/26av7wiq/Gang.of.GhostS.2014.1CD.x264.WEB%20RIP.ESUBS-Team.Telly.Exclusive.mkv
http://uploaded.net/file/t5klujc2/Gang.of.GhostS.2014.1CD.x264.WEB%20RIP.ESUBS-Team.Telly.Exclusive.srt

Gang of Ghosts (2014) - 1CD WEB=HDRip x264 Esubs Team TT Exclusive 1cd 2014 esubs exclusive gang ghosts team tt webhdrip