Maan Karate (2014) 1/3DVDSCR x264 fjsm.jpg








كود:
eneral
Format                                   : Matroska
Format version                           : Version 2
File size                                : 1.41 GiB
Duration                                 : 2h 29mn
Overall bit rate                         : 1 352 Kbps
Encoded date                             : UTC 2010-12-31 20:44:34
Writing application                      : mkvmerge v6.5.0 ('Isn't she lovely') built on Oct 20 2013 12:50:05
Writing library                          : libebml v1.3.0 + libmatroska v1.4.1


Video
ID                                       : 1
Format                                   : AVC
Format/Info                              : Advanced Video Codec
Format profile                           : High@L3.1
Format settings, CABAC                   : Yes
Format settings, ReFrames                : 4 frames
Codec ID                                 : V_MPEG4/ISO/AVC
Duration                                 : 2h 29mn
Bit rate                                 : 966 Kbps
Width                                    : 1 280 pixels
Height                                   : 544 pixels
Display aspect ratio                     : 2.35:1
Frame rate modemode                          : Constant
Frame rate                               : 29.970 fps
Color space                              : YUV
Chroma subsampling                       : 4:2:0
Bit depth                                : 8 bits
Scan type                                : Progressive
Bits/(Pixel*Frame)                       : 0.046
Stream size                              : 1 008 MiB (70%)
Writing library                          : x264 core 138 r2358 9e941d1
Language                                 : English
Default                                  : Yes
Forced                                   : No

Audio
ID                                       : 2
Format                                   : AC-3
Format/Info                              : Audio Coding 3
Mode extension                           : CM (complete main)
Format settings, Endianness              : Big
Codec ID                                 : A_AC3
Duration                                 : 2h 29mn
Bit rate mode                            : Constant
Bit rate                                 : 384 Kbps
Channel(s)                               : 6 channels
Channel positions                        : Front: L C R, Side: L R, LFE
Sampling rate                            : 48.0 KHz
Bit depth                                : 16 bits
Compression mode                         : Lossy
Stream size                              : 411 MiB (28%)
Default                                  : Yes
Forced                                   : No
Maan Karate (2014) 1/3DVDSCR x264 tWD6YF3.png
Maan Karate (2014) 1/3DVDSCR x264 EJv2YzD.png
Maan Karate (2014) 1/3DVDSCR x264 Znm9Ae3.png
Maan Karate (2014) 1/3DVDSCR x264 80YGyx5.png
Maan Karate (2014) 1/3DVDSCR x264 Bn7ulMe.png
Maan Karate (2014) 1/3DVDSCR x264 VdZxJ3d.png
Maan Karate (2014) 1/3DVDSCR x264 DFZAkd3.png
Maan Karate (2014) 1/3DVDSCR x264 1FAzZM1.jpg



SINGLE DIRECT FAST LINKS

كود:
http://terafile.co/22326b3ea0d7/Maan.Karate.2014.DVDSCR.X264.AC3.720P-MICKAEL936.mkv
كود:
http://rapidgator.net/file/7beb33babb5583bd17f0c7a611dc04bb/Maan.Karate.2014.DVDSCR.X264.AC3.720P-MICKAEL936.mkv.html
كود:
http://uploaded.net/file/baq0zfz3/Maan.Karate.2014.DVDSCR.X264.AC3.720P-MICKAEL936.mkv

Maan Karate (2014) - 1L3DVDSCR x264 AC3 720p FMICKAEL936D 1 or 3dvdscr 2014 ac3 karate maan mickael936