Maan Karate (2014) 700MB 1CDRip 4zsDXej.jpg





كود:
General
Format                           : AVI
Format/Info                      : Audio Video Interleave
File size                        : 700 MiB
Duration                         : 2h 29mn
Overall bit rate                 : 653 Kbps


Video
ID                               : 0
Format                           : MPEG-4 Visual
Format profile                   : Simple@L3
Format settings, BVOP            : No
Format settings, QPel            : No
Format settings, GMC             : No warppoints
Format settings, Matrix          : Default (H.263)
Codec ID                         : XVID
Codec ID/Hint                    : XviD
Duration                         : 2h 29mn
Bit rate                         : 560 Kbps
Width                            : 608 pixels
Height                           : 256 pixels
Display aspect ratio             : 2.35:1
Frame rate                       : 29.970 fps
Color space                      : YUV
Chroma subsampling               : 4:2:0
Bit depth                        : 8 bits
Scan type                        : Progressive
Bits/(Pixel*Frame)               : 0.120
Stream size                      : 600 MiB (86%)
Writing library                  : XviD 1.1.2 (UTC 2006-11-01)

Audio
ID                               : 1
Format                           : MPEG Audio
Format version                   : Version 1
Format profile                   : Layer 3
Mode                             : Joint stereo
Mode extension                   : MS Stereo
Codec ID                         : 55
Codec ID/Hint                    : MP3
Duration                         : 2h 29mn
Bit rate mode                    : Constant
Bit rate                         : 80.0 Kbps
Channel(s)                       : 2 channels
Sampling rate                    : 44.1 KHz
Stream size                      : 85.7 MiB (12%)
Alignment                        : Split accross interleaves
Interleave, duration             : 26 ms (0.78 video frame)


Maan Karate (2014) 700MB 1CDRip V7MURRg.png
Maan Karate (2014) 700MB 1CDRip CeYwjYv.png
Maan Karate (2014) 700MB 1CDRip BRpmTZQ.png
Maan Karate (2014) 700MB 1CDRip FZT57Y5.png
Maan Karate (2014) 700MB 1CDRip 1QYbX5s.png
Maan Karate (2014) 700MB 1CDRip isBkvGV.png
Maan Karate (2014) 700MB 1CDRip akYX71M.png



SINGLE DIRECT FAST LINKS



كود:
http://terafile.co/f92575533008/Maan.Karate.2014.Xvid.DVDSCR.700Mb-TTT.avi

كود:
http://rapidgator.net/file/0955af030e0624afd7c9d6cde06716d3/Maan.Karate.2014.Xvid.DVDSCR.700Mb-TTT.avi.html
كود:
http://uploaded.net/file/ud7kcme0/Maan.Karate.2014.Xvid.DVDSCR.700Mb-TTT.avi

Maan Karate (2014) - 700MB 1CDRip DVDscr XviD TTT 1cdrip 2014 700mb dvdscr karate maan tamil ttt xvid