Nimirndhu (2014) 1/3DVDRip XviD 53KqCZc.jpg





كود:
General
Format                           : AVI
Format/Info                      : Audio Video Interleave
File size                        : 1.38 GiB
Duration                         : 2h 24mn
Overall bit rate                 : 1 363 Kbps


Video
ID                               : 0
Format                           : MPEG-4 Visual
Format profile                   : Simple@L3
Format settings, BVOP            : No
Format settings, QPel            : No
Format settings, GMC             : No warppoints
Format settings, Matrix          : Default (H.263)
Codec ID                         : XVID
Codec ID/Hint                    : XviD
Duration                         : 2h 24mn
Bit rate                         : 903 Kbps
Width                            : 672 pixels
Height                           : 272 pixels
Display aspect ratio             : 2.471
Frame rate                       : 29.970 fps
Color space                      : YUV
Chroma subsampling               : 4:2:0
Bit depth                        : 8 bits
Scan type                        : Progressive
Bits/(Pixel*Frame)               : 0.165
Stream size                      : 934 MiB (66%)
Writing library                  : XviD 1.1.2 (UTC 2006-11-01)

Audio
ID                               : 1
Format                           : AC-3
Format/Info                      : Audio Coding 3
Mode extension                   : CM (complete main)
Codec ID                         : 2000
Duration                         : 2h 24mn
Bit rate mode                    : Constant
Bit rate                         : 448 Kbps
Channel(s)                       : 6 channels
Channel positions                : Front: L C R, Side: L R, LFE
Sampling rate                    : 48.0 KHz
Stream size                      : 463 MiB (33%)
Alignment                        : Aligned on interleaves
Interleave, duration             : 32 ms (0.96 video frame)
Nimirndhu (2014) 1/3DVDRip XviD 1JRq19A.png
Nimirndhu (2014) 1/3DVDRip XviD oLS0l2I.png
Nimirndhu (2014) 1/3DVDRip XviD lZ74phy.png
Nimirndhu (2014) 1/3DVDRip XviD UNlKw25.png



SINGLE DIRECT FAST LINKS




كود:
http://terafile.co/c15909628fe7/Nimirndhu.Nil.2014.Lotus.DVDRIP.AC3.Xvid.1.36Gb.5.1.AudiO-TT.avi

كود:
http://rapidgator.net/file/f12122f680b1dd7c3194ed6aa6a156ed/Nimirndhu.Nil.2014.Lotus.DVDRIP.AC3.Xvid.1.36Gb.5.1.AudiO-TT.avi.html
كود:
http://uploaded.net/file/wvyklsy4/Nimirndhu.Nil.2014.Lotus.DVDRIP.AC3.Xvid.1.36Gb.5.1.AudiO-TT.avi

Nimirndhu Nil (2014) - 1L3DVDRip AC3 5>1 XviD TTT 1 or 3dvdrip 2014 51 ac3 nil nimirndhu tamil ttt xvid