Bicycle Thieves (2014) 720p DVDRip yk504.jpg





كود:
Source                                   : DVD9 [TMR]
Complete name                            : Bicycle Thieves (2014) - 720p - DVDRip - x264 - SAP [DDR].mp4
Format                                   : MPEG-4
Format profile                           : Base Media
Codec ID                                 : isom
File size                                : 2.57 GiB
Duration                                 : 2h 24mn
Overall bit rate                         : 2 549 Kbps

Video
ID                                       : 1
Format                                   : AVC
Format/Info                              : Advanced Video Codec
Format profile                           : High@L4.1
Format settings, CABAC                   : Yes
Format settings, ReFrames                : 3 frames
Codec ID                                 : avc1
Codec ID/Info                            : Advanced Video Coding
Duration                                 : 2h 24mn
Bit rate                                 : 2 099 Kbps
Maximum bit rate                         : 10.7 Mbps
Width                                    : 1 280 pixels
Height                                   : 544 pixels
Display aspect ratio                     : 2.35:1
Frame rate mode                          : Constant
Frame rate                               : 23.976 fps
Color space                              : YUV
Chroma subsampling                       : 4:2:0
Bit depth                                : 8 bits
Scan type                                : Progressive
Bits/(Pixel*Frame)                       : 0.126
Stream size                              : 2.12 GiB (82%)
Title                                    : Track 1 [DDR]
Writing library                          : x264 core 138 r2358 9e941d1

Audio
ID                                       : 2
Format                                   : AC-3
Format/Info                              : Audio Coding 3
Mode extension                           : HI (hearing impaired)
Format settings, Endianness              : Big
Codec ID                                 : ac-3
Duration                                 : 2h 24mn
Bit rate mode                            : Constant
Bit rate                                 : 448 Kbps
Channel(s)                               : 6 channels
Channel positions                        : Front: L C R, Side: L R, LFE
Sampling rate                            : 48.0 KHz
Bit depth                                : 16 bits
Compression mode                         : Lossy
Stream size                              : 463 MiB (18%)
Title                                    : Track 1 [DDR]




Bicycle Thieves (2014) 720p DVDRip z4al.png

Bicycle Thieves (2014) 720p DVDRip p75v.png

Bicycle Thieves (2014) 720p DVDRip 9nsr.png

Bicycle Thieves (2014) 720p DVDRip rq4p.png

Bicycle Thieves (2014) 720p DVDRip c5ob.png

Bicycle Thieves (2014) 720p DVDRip ae3j.png

Bicycle Thieves (2014) 720p DVDRip 6ptw.png





SINGLE DIRECT FAST LINKS

كود:
http://terafile.co/895751446549/Bicycle.Thieves.2014.720p.DVDRip.x264.SAP-DDR.mp4
كود:
http://rapidgator.net/file/c7f08b6f44a445b7cc8515f7103d47a6/Bicycle.Thieves.2014.720p.DVDRip.x264.SAP-DDR.mp4.html
كود:
http://uploaded.net/file/llez38ui/Bicycle.Thieves.2014.720p.DVDRip.x264.SAP-DDR.mp4
700MB LINKS


كود:
http://terafile.co/33015d8221a4/Bicycle.Thieves.2014.720p.DVDRip.x264.SAP-DDR.mp4.001
http://terafile.co/2708b152f982/Bicycle.Thieves.2014.720p.DVDRip.x264.SAP-DDR.mp4.002
http://terafile.co/a72360488156/Bicycle.Thieves.2014.720p.DVDRip.x264.SAP-DDR.mp4.003
http://terafile.co/8258788675c5/Bicycle.Thieves.2014.720p.DVDRip.x264.SAP-DDR.mp4.004
http://terafile.co/542185861297/Bicycle.Thieves.2014.720p.DVDRip.x264.SAP-DDR.sub
http://terafile.co/bd8d4901f660/Bicycle.Thieves.2014.720p.DVDRip.x264.SAP-DDR.idx
كود:
http://rapidgator.net/file/cda94826ff12c7f9e7be971fe349e537/Bicycle.Thieves.2014.720p.DVDRip.x264.SAP-DDR.mp4.001.html
http://rapidgator.net/file/debd340fc59716759e00574dcade282d/Bicycle.Thieves.2014.720p.DVDRip.x264.SAP-DDR.mp4.002.html
http://rapidgator.net/file/de54aa8e2ef1ee968f09fc76efc91db7/Bicycle.Thieves.2014.720p.DVDRip.x264.SAP-DDR.mp4.003.html
http://rapidgator.net/file/4a68aa8f4142f31df0c6d408da51a3b6/Bicycle.Thieves.2014.720p.DVDRip.x264.SAP-DDR.mp4.004.html
http://rapidgator.net/file/8c33f9f84abeccb2e1fc34da4cdf1ca4/Bicycle.Thieves.2014.720p.DVDRip.x264.SAP-DDR.sub.html
http://rapidgator.net/file/e48a2657a3d332042b007ee6264ff885/Bicycle.Thieves.2014.720p.DVDRip.x264.SAP-DDR.idx.html


كود:
http://uploaded.net/file/ro0sb4nf/Bicycle.Thieves.2014.720p.DVDRip.x264.SAP-DDR.mp4.001
http://uploaded.net/file/ai137oc2/Bicycle.Thieves.2014.720p.DVDRip.x264.SAP-DDR.mp4.002
http://uploaded.net/file/4yewlj9z/Bicycle.Thieves.2014.720p.DVDRip.x264.SAP-DDR.mp4.003
http://uploaded.net/file/63ub4xhu/Bicycle.Thieves.2014.720p.DVDRip.x264.SAP-DDR.mp4.004
http://uploaded.net/file/d78y91as/Bicycle.Thieves.2014.720p.DVDRip.x264.SAP-DDR.sub
http://uploaded.net/file/ujka5b5v/Bicycle.Thieves.2014.720p.DVDRip.x264.SAP-DDR.idx

Bicycle Thieves (2014) - 720p DVDRip x264 SAP FDDRD 2014 bicycle ddr dvdrip sap thieves