Bicycle Thieves (2013) DVDRip x264 yprly.png

- MollyWooD MoviE -
Bicycle Thieves

**DVDRip / x264 / 1xCD / SAP**


Bicycle Thieves (2013) DVDRip x264 yk504.jpg


[ INFO ]

كود:
Source                                       : DVD9 [TMR]
Complete name                            : Bicycle Thieves (2014) - DVDRip - x264 - SAP - 1xCD [DDR].mp4
Format                                   : MPEG-4
Format profile                           : Base Media
Codec ID                                 : isom
File size                                : 700 MiB
Duration                                 : 2h 24mn
Overall bit rate                         : 677 Kbps

ID                                       : 1
Format                                   : AVC
Format/Info                              : Advanced Video Codec
Format profile                           : Main@L3.1
Format settings, CABAC                   : Yes
Format settings, ReFrames                : 3 frames
Codec ID                                 : avc1
Codec ID/Info                            : Advanced Video Coding
Duration                                 : 2h 24mn
Bit rate                                 : 595 Kbps
Maximum bit rate                         : 3 321 Kbps
Width                                    : 640 pixels
Height                                   : 272 pixels
Display aspect ratio                     : 2.35:1
Frame rate mode                          : Constant
Frame rate                               : 23.976 fps
Color space                              : YUV
Chroma subsampling                       : 4:2:0
Bit depth                                : 8 bits
Scan type                                : Progressive
Bits/(Pixel*Frame)                       : 0.143
Stream size                              : 615 MiB (88%)

Format                                   : MPEG Audio
Format version                           : Version 1
Format profile                           : Layer 3
Mode                                     : Joint stereo
Mode extension                           : MS Stereo
Codec ID                                 : 6B
Duration                                 : 2h 24mn
Bit rate mode                            : Constant
Bit rate                                 : 80.0 Kbps
Maximum bit rate                         : 83.5 Kbps
Channel(s)                               : 2 channels
Sampling rate                            : 32.0 KHz
Compression mode                         : Lossy
Stream size                              : 82.7 MiB (12%)

[ SCREENS ]
Bicycle Thieves (2013) DVDRip x264 lbxn.png

Bicycle Thieves (2013) DVDRip x264 vqwa.png

Bicycle Thieves (2013) DVDRip x264 gyme.png

Bicycle Thieves (2013) DVDRip x264 ha9w.png

Bicycle Thieves (2013) DVDRip x264 0ib8.png

Bicycle Thieves (2013) DVDRip x264 67nh.png

Bicycle Thieves (2013) DVDRip x264 d20s.png

Bicycle Thieves (2013) DVDRip x264 a3d0.png

Sample
كود:
http://www.sendspace.com/file/mvpx42
DownLoad

RapidGator
كود:
http://rapidgator.net/file/8ff3495fa032dad2d63b6083b6a578ae/Bicycle.Thieves.2013.1CD.DVDRip.x264.Esubs-DDR.mp4.html

http://rapidgator.net/file/7478fcef249309453a19b4015e1003d9/Bicycle.Thieves.2013.1CD.DVDRip.x264.Esubs-DDR.srt.html
Uploaded.to
كود:
http://uploaded.net/file/j8x6m75b/Bicycle.Thieves.2013.1CD.DVDRip.x264.Esubs-DDR.mp4

http://uploaded.net/file/wyxljx80/Bicycle.Thieves.2013.1CD.DVDRip.x264.Esubs-DDR.srt
TeraFile
كود:
http://terafile.co/ff91415001d1/Bicycle.Thieves.2013.1CD.DVDRip.x264.Esubs-DDR.mp4

http://terafile.co/359504d2de3b/Bicycle.Thieves.2013.1CD.DVDRip.x264.Esubs-DDR.srt
NetLoad
كود:
http://netload.in/dateiWlQHZudMaT/Bicycle.Thieves.2013.1CD.DVDRip.x264.Esubs-DDR.mp4.htm

http://netload.in/datei2nWBw85KuV/Bicycle.Thieves.2013.1CD.DVDRip.x264.Esubs-DDR.srt.htm

Bicycle Thieves (2013) - 1CD DVDRip x264 Esubs FDDRD 1cd 2013 bicycle ddr dvdrip esubs thieves