Masala (2013) DTHRip x264 Telugu Masala-Movie-Poster-Designs-15.jpg







كود:
General
Complete name                            : D:\Download Completed 1\Masala.2013.1GB.DTHRip-Team.TQR.mp4
Format                                   : MPEG-4
Format profile                           : Base Media / Version 2
Codec ID                                 : mp42
File size                                : 1.07 GiB
Duration                                 : 2h 15mn
Overall bit rate mode                    : Variable
Overall bit rate                         : 1 135 Kbps
Encoded date                             : UTC 2014-04-03 07:15:37
Tagged date                              : UTC 2014-04-03 07:38:40
Writing application                      : HandBrake 0.9.9 2013052900

Video
ID                                       : 1
Format                                   : AVC
Format/Info                              : Advanced Video Codec
Format profile                           : High@L5.1
Format settings, CABAC                   : Yes
Format settings, ReFrames                : 4 frames
Codec ID                                 : avc1
Codec ID/Info                            : Advanced Video Coding
Duration                                 : 2h 15mn
Bit rate                                 : 1 034 Kbps
Width                                    : 512 pixels
Height                                   : 208 pixels
Display aspect ratio                     : 2.462
Frame rate mode                          : Constant
Frame rate                               : 25.000 fps
Color space                              : YUV
Chroma subsampling                       : 4:2:0
Bit depth                                : 8 bits
Scan type                                : Progressive
Bits/(Pixel*Frame)                       : 0.388
Stream size                              : 1 003 MiB (91%)
Writing library                          : x264 core 130 r2273 b3065e6
Encoding settings                        : cabac=1 / ref=4 / deblock=1:1:1 / analyse=0x3:0x113 / me=hex / subme=4 / psy=1 / psy_rd=0.40:0.00 / mixed_ref=0 / me_range=16 / chroma_me=1 / trellis=1 / 8x8dct=1 / cqm=0 / deadzone=21,11 / fast_pskip=1 / chroma_qp_offset=0 / threads=6 / lookahead_threads=1 / sliced_threads=0 / nr=0 / decimate=1 / interlaced=0 / bluray_compat=0 / constrained_intra=0 / bframes=5 / b_pyramid=2 / b_adapt=1 / b_bias=0 / direct=1 / weightb=1 / open_gop=0 / weightp=1 / keyint=250 / keyint_min=25 / scenecut=40 / intra_refresh=0 / rc_lookahead=20 / rc=crf / mbtree=1 / crf=20.0 / qcomp=0.60 / qpmin=0 / qpmax=69 / qpstep=4 / vbv_maxrate=300000 / vbv_bufsize=300000 / crf_max=0.0 / nal_hrd=none / ip_ratio=1.40 / aq=1:0.60
Encoded date                             : UTC 2014-04-03 07:15:37
Tagged date                              : UTC 2014-04-03 07:38:40
Color primaries                          : BT.601 PAL
Transfer characteristics                 : BT.709
Matrix coefficients                      : BT.601

Audio
ID                                       : 2
Format                                   : AAC
Format/Info                              : Advanced Audio Codec
Format profile                           : LC
Codec ID                                 : 40
Duration                                 : 2h 15mn
Bit rate mode                            : Variable
Bit rate                                 : 96.0 Kbps
Maximum bit rate                         : 133 Kbps
Channel count                            : 2 channels
Channel positions                        : Front: L R
Sampling rate                            : 44.1 KHz
Compression mode                         : Lossy
Stream size                              : 93.1 MiB (8%)
Encoded date                             : UTC 2014-04-03 07:15:37
Tagged date                              : UTC 2014-04-03 07:38:40


Masala (2013) DTHRip x264 Telugu rTPHRHz.png

Masala (2013) DTHRip x264 Telugu Qgh5ZeJ.png

Masala (2013) DTHRip x264 Telugu IlIVjeh.png

Masala (2013) DTHRip x264 Telugu ghmOVrU.png

Masala (2013) DTHRip x264 Telugu Xskho6L.png

Masala (2013) DTHRip x264 Telugu 7XgkSBz.png

Masala (2013) DTHRip x264 Telugu s2jN48R.png

Masala (2013) DTHRip x264 Telugu Cj2v6nw.png

Masala (2013) DTHRip x264 Telugu jJOrHyW.png

Masala (2013) DTHRip x264 Telugu zDUz7G9.png






SINGLE DIRECT FAST LINKS

كود:
http://terafile.co/495088576f58/Masala.2013.1GB.DTHRip-Team.TQR.mp4
كود:
http://rapidgator.net/file/c04db90abd8392e975166192abd6d683/Masala.2013.1GB.DTHRip-Team.TQR.mp4.html
كود:
http://uploaded.net/file/1gr4o5dj/Masala.2013.1GB.DTHRip-Team.TQR.mp4

Masala (2013) - 1GB DTHRip x264 Telugu Team TQR Exclusive 1gb 2013 dthrip exclusive masala team telugu tqr