ROWDY (2014) 700MB 1CDRip DVDscr 2014_4_thumbimg103_Apr_2014_123146347.jpg





كود:
General
Complete name                            : D:\Download Completed 2\ROWDY.2014.PDVDRip.XviD.1CD-Team.Telly.Exclusive.avi
Format                                   : AVI
Format/Info                              : Audio Video Interleave
File size                                : 694 MiB
Duration                                 : 1h 40mn
Overall bit rate                         : 970 Kbps

Video
ID                                       : 0
Format                                   : MPEG-4 Visual
Format profile                           : Advanced Simple@L5
Format settings, BVOP                    : 2
Format settings, QPel                    : No
Format settings, GMC                     : No warppoints
Format settings, Matrix                  : Default (H.263)
Codec ID                                 : XVID
Codec ID/Hint                            : XviD
Duration                                 : 1h 40mn
Bit rate                                 : 884 Kbps
Width                                    : 640 pixels
Height                                   : 272 pixels
Display aspect ratio                     : 2.35:1
Frame rate                               : 25.000 fps
Color space                              : YUV
Chroma subsampling                       : 4:2:0
Bit depth                                : 8 bits
Scan type                                : Progressive
Compression mode                         : Lossy
Bits/(Pixel*Frame)                       : 0.203
Stream size                              : 632 MiB (91%)
Writing library                          : XviD 1.2.1 (UTC 2008-12-04)

Audio
ID                                       : 1
Format                                   : MPEG Audio
Format version                           : Version 1
Format profile                           : Layer 3
Mode                                     : Joint stereo
Mode extension                           : MS Stereo
Codec ID                                 : 55
Codec ID/Hint                            : MP3
Duration                                 : 1h 40mn
Bit rate mode                            : Constant
Bit rate                                 : 80.0 Kbps
Channel count                            : 2 channels
Sampling rate                            : 32.0 KHz
Compression mode                         : Lossy
Stream size                              : 57.2 MiB (8%)
Alignment                                : Aligned on interleaves
Interleave, duration                     : 160 ms (4.00 video frames)
Interleave, preload duration             : 216 ms
Title                                    : VTS_01_1 T80 2_0ch 192Kbps DELAY 0ms
Writing library                          : LAME3.99r
Encoding settings                        : -m j -V 4 -q 2 -lowpass 13.5 -b 80

ROWDY (2014) 700MB 1CDRip DVDscr screenshot.gif

ROWDY (2014) 700MB 1CDRip DVDscr YfN16Uk.jpg ROWDY (2014) 700MB 1CDRip DVDscr RS7eYtE.jpg ROWDY (2014) 700MB 1CDRip DVDscr n9EZ4nj.jpg ROWDY (2014) 700MB 1CDRip DVDscr uWeX1LU.jpg ROWDY (2014) 700MB 1CDRip DVDscr 2Ih3ovu.jpg ROWDY (2014) 700MB 1CDRip DVDscr RALT6vg.jpg ROWDY (2014) 700MB 1CDRip DVDscr at2hagl.jpg ROWDY (2014) 700MB 1CDRip DVDscr SYoki5M.jpg ROWDY (2014) 700MB 1CDRip DVDscr QViXVaO.jpg ROWDY (2014) 700MB 1CDRip DVDscr IbLNmVh.jpg ROWDY (2014) 700MB 1CDRip DVDscr 7cEMU0M.jpg ROWDY (2014) 700MB 1CDRip DVDscr Zvu1KOy.jpg ROWDY (2014) 700MB 1CDRip DVDscr FbCWgWP.jpg ROWDY (2014) 700MB 1CDRip DVDscr yZ5JuVj.jpg ROWDY (2014) 700MB 1CDRip DVDscr xsVOUV3.jpg ROWDY (2014) 700MB 1CDRip DVDscr lAeR0n5.jpg ROWDY (2014) 700MB 1CDRip DVDscr grNAmGx.jpg ROWDY (2014) 700MB 1CDRip DVDscr AlFGtyO.jpg ROWDY (2014) 700MB 1CDRip DVDscr VPUtdLL.jpg ROWDY (2014) 700MB 1CDRip DVDscr DXpcw6t.jpg





SINGLE DIRECT FAST LINKS


كود:
http://terafile.co/3c3633dec7d7/ROWDY.2014.PDVDRip.XviD.1CD-Team.Telly.Exclusive.avi
كود:
http://rapidgator.net/file/92764e1871df991505fc855648869743/ROWDY.2014.PDVDRip.XviD.1CD-Team.Telly.Exclusive.avi.html

كود:
http://uploaded.net/file/7x36s0c2/ROWDY.2014.PDVDRip.XviD.1CD-Team.Telly.Exclusive.avi

ROWDY (2014) - 700MB 1CDRip DVDscr XviD Team TT Exclusive 1cdrip 2014 700mb dvdscr exclusive rowdy team tt xvid