Legend (2014) Telugu NS-DVDSCR XviD Balakrishna_Legend_2014_Telugu_Movie_New_Wallpap.jpg




كود:
General
Complete name                            : D:\Download Completed 2\Legend.2014.Telugu.Movie.DVDSCR.XviD.1CD-Team.Telly.avi
Format                                   : AVI
Format/Info                              : Audio Video Interleave
File size                                : 687 MiB
Duration                                 : 2h 33mn
Overall bit rate                         : 625 Kbps

Video
ID                                       : 0
Format                                   : MPEG-4 Visual
Format profile                           : Advanced Simple@L5
Format settings, BVOP                    : 2
Format settings, QPel                    : No
Format settings, GMC                     : No warppoints
Format settings, Matrix                  : Default (H.263)
Codec ID                                 : XVID
Codec ID/Hint                            : XviD
Duration                                 : 2h 33mn
Bit rate                                 : 538 Kbps
Width                                    : 640 pixels
Height                                   : 272 pixels
Display aspect ratio                     : 2.35:1
Frame rate                               : 29.970 fps
Color space                              : YUV
Chroma subsampling                       : 4:2:0
Bit depth                                : 8 bits
Scan type                                : Progressive
Compression mode                         : Lossy
Bits/(Pixel*Frame)                       : 0.103
Stream size                              : 591 MiB (86%)
Writing library                          : XviD 1.2.1 (UTC 2008-12-04)

Audio
ID                                       : 1
Format                                   : MPEG Audio
Format version                           : Version 1
Format profile                           : Layer 3
Mode                                     : Joint stereo
Mode extension                           : MS Stereo
Codec ID                                 : 55
Codec ID/Hint                            : MP3
Duration                                 : 2h 33mn
Bit rate mode                            : Constant
Bit rate                                 : 80.0 Kbps
Channel count                            : 2 channels
Sampling rate                            : 32.0 KHz
Compression mode                         : Lossy
Stream size                              : 87.9 MiB (13%)
Alignment                                : Aligned on interleaves
Interleave, duration                     : 133 ms (4.00 video frames)
Interleave, preload duration             : 216 ms
Title                                    : final Tc0 L2 2ch 48 224 DELAY 0ms
Writing library                          : LAME3.99r
Encoding settings                        : -m j -V 4 -q 2 -lowpass 13.5 -b 80

Legend (2014) Telugu NS-DVDSCR XviD screenshot.gif

Legend (2014) Telugu NS-DVDSCR XviD 071BNld.jpg Legend (2014) Telugu NS-DVDSCR XviD LasU1UJ.jpg Legend (2014) Telugu NS-DVDSCR XviD dq7NzsS.jpg Legend (2014) Telugu NS-DVDSCR XviD nLCxCKb.jpg Legend (2014) Telugu NS-DVDSCR XviD InE6Hvl.jpg Legend (2014) Telugu NS-DVDSCR XviD Zf3G7Pf.jpg Legend (2014) Telugu NS-DVDSCR XviD M5uUwAo.jpg Legend (2014) Telugu NS-DVDSCR XviD KFPweIX.jpg Legend (2014) Telugu NS-DVDSCR XviD 2vJIgbM.jpg Legend (2014) Telugu NS-DVDSCR XviD HG0Hv3p.jpg Legend (2014) Telugu NS-DVDSCR XviD gvc5UZ1.jpg Legend (2014) Telugu NS-DVDSCR XviD 2HLIcKr.jpg Legend (2014) Telugu NS-DVDSCR XviD PbGANsi.jpg Legend (2014) Telugu NS-DVDSCR XviD qAX1HnT.jpg Legend (2014) Telugu NS-DVDSCR XviD 1ZSUmnk.jpg Legend (2014) Telugu NS-DVDSCR XviD he6WqXs.jpg Legend (2014) Telugu NS-DVDSCR XviD JEqAL4c.jpg Legend (2014) Telugu NS-DVDSCR XviD d7N2T47.jpg





SINGLE DIRECT FAST LINKS



كود:
http://terafile.co/f8be436adf2b/Legend.2014.Telugu.Movie.DVDSCR.XviD.1CD-Team.Telly.avi
كود:
http://rapidgator.net/file/5b5482bf7232f553a3fc26189109ca5b/Legend.2014.Telugu.Movie.DVDSCR.XviD.1CD-Team.Telly.avi.html
كود:
http://uploaded.net/file/7a9ypun9/Legend.2014.Telugu.Movie.DVDSCR.XviD.1CD-Team.Telly.avi

Legend (2014) - Telugu NS-DVDSCR XviD V1CDC Team TT 1cd 2014 legend nsdvdscr team telugu tt xvid