Rowdy (2014) 700MB 1CDRip PDVDRip r4h8.jpg





كود:
Format                                   : AVI
Format/Info                              : Audio Video Interleave
File size                                : 694 MiB
Duration                                 : 1h 39mn
Overall bit rate                         : 971 Kbps

Video

ID                                       : 0
Format                                   : MPEG-4 Visual
Format profile                           : Advanced Simple@L5
Format settings, BVOP                    : 3
Format settings, QPel                    : No
Format settings, GMC                     : No warppoints
Format settings, Matrix                  : Default (H.263)
Codec ID                                 : XVID
Codec ID/Hint                            : XviD
Duration                                 : 1h 39mn
Bit rate                                 : 869 Kbps
Width                                    : 608 pixels
Height                                   : 256 pixels
Display aspect ratio                     : 2.2:1
Frame rate                               : 25.000 fps
Color space                              : YUV
Chroma subsampling                       : 4:2:0
Bit depth                                : 8 bits
Scan type                                : Progressive
Compression mode                         : Lossy
Bits/(Pixel*Frame)                       : 0.223
Stream size                              : 621 MiB (89%)
Writing library                          : XviD 1.2.1 (UTC 2008-12-04)

Audio

ID                                       : 1
Format                                   : MPEG Audio
Format version                           : Version 1
Format profile                           : Layer 3
Mode                                     : Joint stereo
Mode extension                           : MS Stereo
Codec ID                                 : 55
Codec ID/Hint                            : MP3
Duration                                 : 1h 39mn
Bit rate mode                            : Constant
Bit rate                                 : 96.0 Kbps
Channel(s)                               : 2 channels
Sampling rate                            : 32.0 KHz
Compression mode                         : Lossy
Stream size                              : 68.7 MiB (10%)
Alignment                                : Aligned on interleaves
Interleave, duration                     : 160 ms (4.00 video frames)
Interleave, preload duration             : 216 ms
Title                                    : Rowdy - 2014
Writing library                          : LAME3.99r
Encoding settings                        : -m j -V 4 -q 2 -lowpass 15.1 -b 96


Rowdy (2014) 700MB 1CDRip PDVDRip tka8BPB.png
Rowdy (2014) 700MB 1CDRip PDVDRip GYVRxFn.png
Rowdy (2014) 700MB 1CDRip PDVDRip o26ksRu.png
Rowdy (2014) 700MB 1CDRip PDVDRip sfB8GkP.png
Rowdy (2014) 700MB 1CDRip PDVDRip hIIxl4b.png
Rowdy (2014) 700MB 1CDRip PDVDRip XlTLWim.png
Rowdy (2014) 700MB 1CDRip PDVDRip MchAVt7.png
Rowdy (2014) 700MB 1CDRip PDVDRip 4E9wM1v.png



SINGLE DIRECT FAST LINKS



كود:
http://terafile.co/41fa84574a19/Rowdy.2014.Xvid.700MB-TTT.avi

كود:
http://uploaded.net/file/pjz1jvc7/Rowdy.2014.Xvid.700MB-TTT.avi
كود:
http://rapidgator.net/file/5937296e005146ffb1dd1c5ee9607b9a/Rowdy.2014.Xvid.700MB-TTT.avi.html

Rowdy (2014) - 700MB 1CDRip PDVDRip XviD Telugu TTT 1cdrip 2014 700mb pdvdrip rowdy telugu ttt xvid