(2014) x264 HDTVRip Team Exclusive Ya_Rab.jpg





كود:
General
Complete name                            : D:\Torrent Completed\Ya.Rab.2014.1CD.X264.SAP.HDTVRIP-Team.Telly.Exclusive\Ya.Rab.2014.1CD.X264.SAP.HDTVRIP-Team.Telly.Exclusive.mp4
Format                                   : MPEG-4
Format profile                           : Base Media
Codec ID                                 : isom
File size                                : 742 MiB
Duration                                 : 2h 2mn
Overall bit rate                         : 845 Kbps
Encoded date                             : UTC 2014-04-06 05:44:12
Tagged date                              : UTC 2014-04-06 05:44:12

Video
ID                                       : 1
Format                                   : AVC
Format/Info                              : Advanced Video Codec
Format profile                           : High@L4.1
Format settings, CABAC                   : Yes
Format settings, ReFrames                : 4 frames
Codec ID                                 : avc1
Codec ID/Info                            : Advanced Video Coding
Duration                                 : 2h 2mn
Bit rate                                 : 715 Kbps
Maximum bit rate                         : 2 937 Kbps
Width                                    : 640 pixels
Height                                   : 272 pixels
Display aspect ratio                     : 2.35:1
Frame rate mode                          : Constant
Frame rate                               : 24.952 fps
Color space                              : YUV
Chroma subsampling                       : 4:2:0
Bit depth                                : 8 bits
Scan type                                : Progressive
Bits/(Pixel*Frame)                       : 0.165
Stream size                              : 628 MiB (85%)
Writing library                          : x264 core 138 r2358 9e941d1
Encoding settings                        : cabac=1 / ref=3 / deblock=1:-1:-1 / analyse=0x3:0x113 / me=umh / subme=5 / psy=1 / psy_rd=1.00:0.15 / mixed_ref=1 / me_range=16 / chroma_me=1 / trellis=1 / 8x8dct=1 / cqm=0 / deadzone=21,11 / fast_pskip=1 / chroma_qp_offset=-1 / threads=6 / lookahead_threads=1 / sliced_threads=0 / nr=0 / decimate=1 / interlaced=0 / bluray_compat=0 / constrained_intra=0 / bframes=3 / b_pyramid=2 / b_adapt=1 / b_bias=0 / direct=1 / weightb=1 / open_gop=0 / weightp=2 / keyint=250 / keyint_min=24 / scenecut=40 / intra_refresh=0 / rc_lookahead=40 / rc=2pass / mbtree=1 / bitrate=715 / ratetol=1.0 / qcomp=0.60 / qpmin=0 / qpmax=69 / qpstep=4 / cplxblur=20.0 / qblur=0.5 / vbv_maxrate=24000 / vbv_bufsize=24000 / nal_hrd=none / ip_ratio=1.40 / aq=1:1.00
Encoded date                             : UTC 2014-04-06 04:41:49
Tagged date                              : UTC 2014-04-06 05:44:30
Color primaries                          : BT.601 NTSC
Transfer characteristics                 : BT.601
Matrix coefficients                      : BT.601

Audio
ID                                       : 2
Format                                   : MPEG Audio
Format version                           : Version 1
Format profile                           : Layer 3
Mode                                     : Joint stereo
Mode extension                           : MS Stereo
Codec ID                                 : 6B
Duration                                 : 2h 2mn
Bit rate mode                            : Constant
Bit rate                                 : 128 Kbps
Maximum bit rate                         : 132 Kbps
Channel count                            : 2 channels
Sampling rate                            : 48.0 KHz
Compression mode                         : Lossy
Stream size                              : 112 MiB (15%)
Writing library                          : LAME3.99r
Encoding settings                        : -m j -V 4 -q 2 -lowpass 17 -b 128
Encoded date                             : UTC 2014-04-06 05:44:21
Tagged date                              : UTC 2014-04-06 05:44:30


(2014) x264 HDTVRip Team Exclusive qakh.png
(2014) x264 HDTVRip Team Exclusive 19iz.png
(2014) x264 HDTVRip Team Exclusive y6bo.png
(2014) x264 HDTVRip Team Exclusive qitl.png
(2014) x264 HDTVRip Team Exclusive ppn8.png
(2014) x264 HDTVRip Team Exclusive 6xcr.png
(2014) x264 HDTVRip Team Exclusive k0q8.png
(2014) x264 HDTVRip Team Exclusive dcns.png
(2014) x264 HDTVRip Team Exclusive ginv.png
(2014) x264 HDTVRip Team Exclusive n5lq.png
(2014) x264 HDTVRip Team Exclusive 5wms.png
(2014) x264 HDTVRip Team Exclusive m44p.png
(2014) x264 HDTVRip Team Exclusive inei.png
(2014) x264 HDTVRip Team Exclusive bbe7.png





SINGLE DIRECT FAST LINKS



كود:
http://terafile.co/757930212793/Ya.Rab.2014.1CD.X264.SAP.HDTVRIP-Team.Telly.Exclusive.mp4
كود:
http://rapidgator.net/file/2149e1570eb82e68665cb4498aa1cdc6/Ya.Rab.2014.1CD.X264.SAP.HDTVRIP-Team.Telly.Exclusive.mp4.html
كود:
http://uploaded.net/file/gzgrr1k7/Ya.Rab.2014.1CD.X264.SAP.HDTVRIP-Team.Telly.Exclusive.mp4

Ya Rab (2014) - 1CD x264 HDTVRip SAP Team TT Exclusive 1cd 2014 exclusive hdtvrip rab sap team tt tg