Silence (2013) Malayalam Untouched DVDR 8o2R96B.png





كود:
General
Format                           : MPEG-PS
File size                        : 1 024 MiB
Duration                         : 29mn 44s
Overall bit rate                 : 4 813 Kbps

Video
ID                               : 224 (0xE0)
Format                           : MPEG Video
Format version                   : Version 2
Format profile                   : Main@Main
Format settings, BVOP            : Yes
Format settings, Matrix          : Default
Format settings, GOP             : M=3, N=12
Duration                         : 29mn 44s
Bit rate mode                    : Variable
Bit rate                         : 3 515 Kbps
Nominal bit rate                 : 8 000 Kbps
Width                            : 720 pixels
Height                           : 480 pixels
Display aspect ratio             : 16:9
Frame rate                       : 23.976 fps
Standard                         : NTSC
Color space                      : YUV
Chroma subsampling               : 4:2:0
Bit depth                        : 8 bits
Scan type                        : Progressive
Scan order                       : 2:3 Pulldown
Bits/(Pixel*Frame)               : 0.424
Stream size                      : 748 MiB (73%)

Audio #1
ID                               : 128 (0x80)
Format                           : AC-3
Format/Info                      : Audio Coding 3
Mode extension                   : CM (complete main)
Duration                         : 29mn 44s
Bit rate mode                    : Constant
Bit rate                         : 448 Kbps
Channel(s)                       : 6 channels
Channel positions                : Front: L C R, Side: L R, LFE
Sampling rate                    : 48.0 KHz
Stream size                      : 95.3 MiB (9%)

Audio #2
ID                               : 137 (0x89)
Format                           : DTS
Format/Info                      : Digital Theater Systems
Duration                         : 29mn 44s
Bit rate mode                    : Constant
Bit rate                         : 755 Kbps
Channel(s)                       : 6 channels
Channel positions                : Front: L C R, Side: L R, LFE
Sampling rate                    : 48.0 KHz
Bit depth                        : 16 bits
Stream size                      : 160 MiB (16%)

Silence (2013) Malayalam Untouched DVDR YXYtsUG.png
Silence (2013) Malayalam Untouched DVDR iL6qVO2.png
Silence (2013) Malayalam Untouched DVDR 7KB3Ntn.png
Silence (2013) Malayalam Untouched DVDR JgEjZOG.png
Silence (2013) Malayalam Untouched DVDR uXhSRGU.png
Silence (2013) Malayalam Untouched DVDR 8zwNGPW.png
Silence (2013) Malayalam Untouched DVDR TAoWmsL.png



SINGLE DIRECT FAST LINKS


كود:
http://terafile.co/4497cf416430/Silence.2013.Mallu.DVDR-TTT.rar
كود:
http://rapidgator.net/file/8fc01946a62dcd9bfbbda16e7466382f/Silence.2013.Mallu.DVDR-TTT.rar.html
كود:
http://uploaded.net/file/3nde7l0k/Silence.2013.Mallu.DVDR-TTT.rar
1GB LINKS





كود:
http://terafile.co/64d108717b36/Silence.2013.Mallu.DVDR-TTT.part1.rar
http://terafile.co/0b77047478e1/Silence.2013.Mallu.DVDR-TTT.part2.rar
http://terafile.co/668864981183/Silence.2013.Mallu.DVDR-TTT.part3.rar
http://terafile.co/739c2f583554/Silence.2013.Mallu.DVDR-TTT.part4.rar
http://terafile.co/12257e9171a5/Silence.2013.Mallu.DVDR-TTT.part5.rar

كود:
http://rapidgator.net/file/b8f18340457d551de65ac962efafac01/Silence.2013.Mallu.DVDR-TTT.part1.rar.html
http://rapidgator.net/file/e16cef98b9ece4c6d66c67c76c7ea4e6/Silence.2013.Mallu.DVDR-TTT.part2.rar.html
http://rapidgator.net/file/75891c0a8c7502f66a1c8beadfc868bc/Silence.2013.Mallu.DVDR-TTT.part3.rar.html
http://rapidgator.net/file/b7e8968919e96f68dded61afb06833d0/Silence.2013.Mallu.DVDR-TTT.part4.rar.html
http://rapidgator.net/file/ca258c6d536186f865ecb631bc272ba0/Silence.2013.Mallu.DVDR-TTT.part5.rar.html


كود:
http://uploaded.net/file/vwzy3f9x/Silence.2013.Mallu.DVDR-TTT.part1.rar
http://uploaded.net/file/etvsup8f/Silence.2013.Mallu.DVDR-TTT.part2.rar
http://uploaded.net/file/ielcqx3w/Silence.2013.Mallu.DVDR-TTT.part3.rar
http://uploaded.net/file/rjdqibo8/Silence.2013.Mallu.DVDR-TTT.part4.rar
http://uploaded.net/file/75ckt7yu/Silence.2013.Mallu.DVDR-TTT.part5.rar

Silence (2013) - Malayalam API Untouched DVDR TTT 2013 api dvdr malayalam silence ttt untouched