Non-Stop (2014) x264 AC3-TiTAN vbyb.jpg

Release Notes
كود:
http://www.imdb.com/title/tt2024469/

General

Source VOBS  AmStErDaM  - THX


Took my time to crop, re-size, change frame rate, and run thru some nice filters..  came out to be a damn nice first cam.. does have some Latino HC subs but there pretty small.. so take it or leave it.


Format                                   : Matroska
Format version                           : Version 2
File size                                : 1.32 GiB
Duration                                 : 1h 39mn
Overall bit rate                         : 1 898 Kbps
Writing application                      : HandBrake 0.9.9
Writing library                          : libmkv 0.6.5

Video
ID                                       : 1
Format                                   : AVC
Format/Info                              : Advanced Video Codec
Format profile                           : Main@L4.1
Format settings, CABAC                   : Yes
Format settings, ReFrames                : 4 frames
Codec ID                                 : V_MPEG4/ISO/AVC
Duration                                 : 1h 39mn
Bit rate                                 : 1 700 Kbps
Width                                    : 720 pixels
Height                                   : 384 pixels
Display aspect ratio                     : 1.85:1
Frame rate mode                          : Constant
Frame rate                               : 25.000 fps
Color space                              : YUV
Chroma subsampling                       : 4:2:0
Bit depth                                : 8 bits
Scan type                                : Progressive
Bits/(Pixel*Frame)                       : 0.246
Stream size                              : 1.16 GiB (88%)
Writing library                          : x264 core 130 r2273 b3065e6
Language                                 : English
Default                                  : Yes
Forced                                   : No
Color primaries                          : BT.709
Transfer characteristics                 : BT.709
Matrix coefficients                      : BT.709

Audio
ID                                       : 2
Format                                   : AC-3
Format/Info                              : Audio Coding 3
Mode extension                           : CM (complete main)
Format settings, Endianness              : Big
Codec ID                                 : A_AC3
Duration                                 : 1h 39mn
Bit rate mode                            : Constant
Bit rate                                 : 192 Kbps
Channel(s)                               : 2 channels
Channel positions                        : Front: L R
Sampling rate                            : 48.0 KHz
Bit depth                                : 16 bits
Compression mode                         : Lossy
Stream size                              : 137 MiB (10%)
Default                                  : Yes
Forced                                   : No
Screens
Non-Stop (2014) x264 AC3-TiTAN fh59.png

Non-Stop (2014) x264 AC3-TiTAN ibaj.png

Non-Stop (2014) x264 AC3-TiTAN r6x8.png

Sample
كود:
http://www.sendspace.com/file/nrivuj
http://www.sendspace.com/file/psjszf
DownLoad

RapidGator
كود:
http://rapidgator.net/file/84d4df355910b11f21840d92db7e09c5/Non-Stop.2014.CAM.x264.AC3-TiTAN.mkv.html
Uploaded.to
كود:
http://uploaded.net/file/yqdjlego/Non-Stop.2014.CAM.x264.AC3-TiTAN.mkv
TeraFile
كود:
http://terafile.co/234630738c34/Non-Stop.2014.CAM.x264.AC3-TiTAN.mkv
NetLoad
كود:
http://netload.in/dateih0mg4KPSnX/Non-Stop.2014.CAM.x264.AC3-TiTAN.mkv.htm

Non-Stop (2014) CAM x264 AC3-TiTAN 2014 ac3titan cam nonstop