August-Osage County (2013) DVDSCREENER XviD z3rw.jpg

Release Notes
كود:
August-Osage County.2013.DVDScr.XVID.AC3.HQ.Hive-CM8

Thx Hive

CM8 Doing It Right The First Time

Source: DVDScr DVD-R  Big thanks DRs


Encode:

quality was nice on the dvd, a bit dark and yellowish, otherwise great
fixed the colouring added brightness and sharpness

got very nice
enjoy till next scr

Video: 720x304 @bitrate 1500 2pass
Audio: English AC3 5.1 @448
Sample: yes included



http://www.imdb.com/title/tt1322269/


General
Complete name                  : August-Osage County.2013.DVDScr.XVID.AC3.HQ.Hive-CM8.avi
Format                         : AVI
Format/Info                    : Audio Video Interleave
File size                      : 1.65 GiB
Duration                       : 2h 0mn
Overall bit rate               : 1 957 Kbps
Writing application            : Nandub v1.0rc2
Writing library                : Nandub build 1853/release

Video
ID                             : 0
Format                         : MPEG-4 Visual
Format profile                 : Advanced [email protected]
Format settings, BVOP          : 2
Format settings, QPel          : Yes
Format settings, GMC           : No warppoints
Format settings, Matrix        : Default (H.263)
Muxing mode                    : Packed bitstream
Codec ID                       : XVID
Codec ID/Hint                  : XviD
Duration                       : 2h 0mn
Bit rate                       : 1 500 Kbps
Width                          : 720 pixels
Height                         : 304 pixels
Display aspect ratio           : 2.35:1
Frame rate                     : 23.976 fps
Color space                    : YUV
Chroma subsampling             : 4:2:0
Bit depth                      : 8 bits
Scan type                      : Progressive
Compression mode               : Lossy
Bits/(Pixel*Frame)             : 0.286
Stream size                    : 1.27 GiB (77%)
Writing library                : XviD 1.2.1 (UTC 2008-12-04)

Audio
ID                             : 1
Format                         : AC-3
Format/Info                    : Audio Coding 3
Mode extension                 : CM (complete main)
Format settings, Endianness    : Big
Codec ID                       : 2000
Duration                       : 2h 0mn
Bit rate mode                  : Constant
Bit rate                       : 448 Kbps
Channel(s)                     : 6 channels
Channel positions              : Front: L C R, Side: L R, LFE
Sampling rate                  : 48.0 KHz
Bit depth                      : 16 bits
Compression mode               : Lossy
Stream size                    : 388 MiB (23%)
Alignment                      : Split accross interleaves
Interleave, duration           : 42 ms (1.00 video frame)
Interleave, preload duration   : 500 ms



Plot:

A look at the lives of the strong-willed women of the Weston family, whose paths have diverged
until a family crisis brings them back to the Oklahoma house they grew up in, and to the
dysfunctional woman who raised them.
Screens
August-Osage County (2013) DVDSCREENER XviD zhp4.png

August-Osage County (2013) DVDSCREENER XviD fb9h.png

August-Osage County (2013) DVDSCREENER XviD 7upi.png

Sample
كود:
http://www.sendspace.com/file/u79i73
DownLoad

RapidGator
كود:
http://rapidgator.net/file/1598f2c91a9661c1f14b6ab26b8001b2/August-Osage_County.2013.DVDScr.XVID.AC3.HQ.Hive-CM8.avi.html
Uploaded.to
كود:
http://uploaded.net/file/xw81t5hx/August-Osage%20County.2013.DVDScr.XVID.AC3.HQ.Hive-CM8.avi
LumFile
كود:
http://lumfile.com/9kiy9zojlcxu/August-Osage_County.2013.DVDScr.XVID.AC3.HQ.Hive-CM8.avi.html
NetLoad
كود:
http://netload.in/dateiAXsqvHg4sS/August-Osage%20County.2013.DVDScr.XVID.AC3.HQ.Hive-CM8.avi.htm

August-Osage County (2013) DVDSCREENER XviD AC3-CM8 2013 ac3cm8 augustosage county dvdscreener xvid